Sin nada que perder (2016) Full 1080p Latino

850 vistas
1 estrella2 estrellas3 estrellas4 estrellas5 estrellas (Ninguna valoración todavía)
Cargando…

Información de Sin nada que perder (2016) Full 1080p Latino

Datos de la película

  • Calidad: Full 1080p
  • Audio: Español Latino AC3 5.1 BLURAY - Ingles DTS 5.1 BLURAY
  • Subtitulos: Español Latino PGS - Ingles PGS
  • Resolución: 1920X1080p
  • Formato: MKV
  • Codec: H.264
  • Encoder: Dracarys
  • Mediainfo: Clic para Mostrar Datos Ver
  • Format                                   : Matroska
    Format version                           : Version 4 / Version 2
    File size                                : 5.81 GiB
    Duration                                 : 1 h 42 min
    Overall bit rate                         : 8 130 kb/s
    Movie name                               : CinemaniaHDD.om
    Encoded date                             : UTC 2018-01-12 04:37:40 / UTC 2017-12-09T13:45:30Z
    Writing application                      : mkvmerge v15.0.0 ('Duel with the Devil') 64-bit
    Writing library                          : libebml v1.3.5 + libmatroska v1.4.5 / Lavf57.7.2

    Video
    ID                                       : 1
    Format                                   : AVC
    Format/Info                              : Advanced Video Codec
    Format profile                           : High@L4.1
    Format settings                          : CABAC / 4 Ref Frames
    Format settings, CABAC                   : Yes
    Format settings, RefFrames               : 4 frames
    Codec ID                                 : V_MPEG4/ISO/AVC
    Duration                                 : 1 h 42 min
    Bit rate                                 : 5 819 kb/s
    Width                                    : 1 920 pixels
    Height                                   : 1 080 pixels
    Display aspect ratio                     : 16:9
    Frame rate mode                          : Constant
    Frame rate                               : 23.976 (24000/1001) FPS
    Color space                              : YUV
    Chroma subsampling                       : 4:2:0
    Bit depth                                : 8 bits
    Scan type                                : Progressive
    Bits/(Pixel*Frame)                       : 0.117
    Stream size                              : 4.16 GiB (72%)
    Title                                    : Sin nada que perder (2016) Full 1080p Latino
    Writing library                          : x264 core 148 r2708 86b7198
    Encoding settings                        : cabac=1 / ref=4 / deblock=1:0:0 / analyse=0x3:0x133 / me=esa / subme=10 / psy=1 / psy_rd=1.00:0.00 / mixed_ref=1 / me_range=24 / chroma_me=1 / trellis=2 / 8x8dct=1 / cqm=0 / deadzone=21,11 / fast_pskip=1 / chroma_qp_offset=-2 / threads=34 / lookahead_threads=5 / sliced_threads=0 / nr=0 / decimate=1 / interlaced=0 / bluray_compat=0 / constrained_intra=0 / bframes=8 / b_pyramid=2 / b_adapt=2 / b_bias=0 / direct=3 / weightb=1 / open_gop=0 / weightp=2 / keyint=240 / keyint_min=24 / scenecut=40 / intra_refresh=0 / rc_lookahead=60 / rc=crf / mbtree=1 / crf=20.0 / qcomp=0.60 / qpmin=0 / qpmax=69 / qpstep=4 / vbv_maxrate=62500 / vbv_bufsize=78125 / crf_max=0.0 / nal_hrd=none / filler=0 / ip_ratio=1.40 / aq=1:1.00
    Language                                 : English
    Default                                  : Yes
    Forced                                   : No
    Color range                              : Limited
    Color primaries                          : BT.709
    Transfer characteristics                 : BT.709
    Matrix coefficients                      : BT.709
    Statistics Tags Issue                    : mkvmerge v15.0.0 ('Duel with the Devil') 64-bit 2018-01-12 04:37:40 / mkvmerge v15.0.0 ('Duel with the Devil') 64-bit 2018-01-12 04:37:40 / UTC 2017-12-09T13:45:30Z
    FromStats_BitRate                        : 5959171
    FromStats_Duration                       : 01:42:15.463000000
    FromStats_FrameCount                     : 147104
    FromStats_StreamSize                     : 4570284820

    Audio #1
    ID                                       : 2
    Format                                   : AC-3
    Format/Info                              : Audio Coding 3
    Format settings, Endianness              : Big
    Codec ID                                 : A_AC3
    Duration                                 : 1 h 42 min
    Bit rate mode                            : Constant
    Bit rate                                 : 640 kb/s
    Channel(s)                               : 6 channels
    Channel positions                        : Front: L C R, Side: L R, LFE
    Sampling rate                            : 48.0 kHz
    Frame rate                               : 31.250 FPS (1536 SPF)
    Bit depth                                : 16 bits
    Compression mode                         : Lossy
    Stream size                              : 468 MiB (8%)
    Language                                 : Spanish
    Service kind                             : Complete Main
    Default                                  : Yes
    Forced                                   : No
    Statistics Tags Issue                    : mkvmerge v15.0.0 ('Duel with the Devil') 64-bit 2018-01-12 04:37:40 / mkvmerge v15.0.0 ('Duel with the Devil') 64-bit 2018-01-12 04:37:40 / UTC 2017-12-09T13:45:30Z
    FromStats_BitRate                        : 640000
    FromStats_Duration                       : 01:42:15.392000000
    FromStats_FrameCount                     : 191731
    FromStats_StreamSize                     : 490831360

    Audio #2
    ID                                       : 3
    Format                                   : DTS
    Format/Info                              : Digital Theater Systems
    Mode                                     : 16
    Format settings, Endianness              : Big
    Codec ID                                 : A_DTS
    Duration                                 : 1 h 42 min
    Bit rate mode                            : Constant
    Bit rate                                 : 1 509 kb/s
    Channel(s)                               : 6 channels
    Channel positions                        : Front: L C R, Side: L R, LFE
    Sampling rate                            : 48.0 kHz
    Frame rate                               : 93.750 FPS (512 SPF)
    Bit depth                                : 24 bits
    Compression mode                         : Lossy
    Stream size                              : 1.08 GiB (19%)
    Language                                 : English
    Default                                  : No
    Forced                                   : No
    Statistics Tags Issue                    : mkvmerge v15.0.0 ('Duel with the Devil') 64-bit 2018-01-12 04:37:40 / mkvmerge v15.0.0 ('Duel with the Devil') 64-bit 2018-01-12 04:37:40 / UTC 2017-12-09T13:45:30Z
    FromStats_BitRate                        : 1508999
    FromStats_Duration                       : 01:42:15.478000000
    FromStats_FrameCount                     : 575201
    FromStats_StreamSize                     : 1157304412

    Text #1
    ID                                       : 4
    Format                                   : PGS
    Muxing mode                              : zlib
    Codec ID                                 : S_HDMV/PGS
    Codec ID/Info                            : Picture based subtitle format used on BDs/HD-DVDs
    Language                                 : English
    Default                                  : No
    Forced                                   : No
    Statistics Tags Issue                    : mkvmerge v15.0.0 ('Duel with the Devil') 64-bit 2018-01-12 04:37:40 / mkvmerge v15.0.0 ('Duel with the Devil') 64-bit 2018-01-12 04:37:40 / UTC 2017-12-09T13:45:30Z
    FromStats_BitRate                        : 35724
    FromStats_Duration                       : 01:34:41.111000000
    FromStats_FrameCount                     : 2391
    FromStats_StreamSize                     : 25369668

    Text #2
    ID                                       : 5
    Format                                   : PGS
    Muxing mode                              : zlib
    Codec ID                                 : S_HDMV/PGS
    Codec ID/Info                            : Picture based subtitle format used on BDs/HD-DVDs
    Language                                 : Spanish
    Default                                  : No
    Forced                                   : No
    Statistics Tags Issue                    : mkvmerge v15.0.0 ('Duel with the Devil') 64-bit 2018-01-12 04:37:40 / mkvmerge v15.0.0 ('Duel with the Devil') 64-bit 2018-01-12 04:37:40 / UTC 2017-12-09T13:45:30Z
    FromStats_BitRate                        : 31168
    FromStats_Duration                       : 01:40:48.186000000
    FromStats_FrameCount                     : 2248
    FromStats_StreamSize                     : 23564442

    Menu
    00:00:00.000                             : :Chapter 1
    00:09:37.285                             : :Chapter 2
    00:13:50.496                             : :Chapter 3
    00:22:14.625                             : :Chapter 4
    00:28:40.427                             : :Chapter 5
    00:31:54.371                             : :Chapter 6
    00:40:49.614                             : :Chapter 7
    00:46:49.974                             : :Chapter 8
    00:55:45.133                             : :Chapter 9
    01:02:06.514                             : :Chapter 10
    01:09:52.980                             : :Chapter 11
    01:14:04.732                             : :Chapter 12
    01:20:56.310                             : :Chapter 13
    01:29:09.219                             : :Chapter 14
    01:35:03.990                             : :Chapter 15
    01:38:28.403                             : :Chapter 16

     

  • Peso: 5.81 GiB

Sinopsis

Un padre divorciado y su hermano, un ex presidiario recién salido de la cárcel, se dirigen al Oeste de Texas con el objetivo realizar una serie de robos en una serie de sucursales bancarias, con el fin de poder conseguir el dinero suficiente como para poder salvar la granja familiar.

Ficha técnica

Video trailer de la película

Enlaces de descarga

Rip de Bluray

Descargar Sin nada que perder (2016) Full 1080p Latino




Aportes de DPeliculasHDmega la pass es:dpeliculashdmega.org Aportes de CinemaniaHD la pass es:cinemaniahdd.com

Películas relacionadas

  • Tully (2018) 1080p Latino

    2018
    Tully (2018) 1080p Latino

    0.0 1 h 35 min 2018

    La historia de una mujer con tres hijos que, incapaz de lidiar con su bebé recién nacido, contrata...

    Director: Jason Reitman

    Género: Comedia

    Actores: Stormy Ent

  • Si solo pudiera imaginar (2018) Full 1080p Latino

    2018
    Si solo pudiera imaginar (2018) Full 1080p Latino

    5.0 1 h 50 min 2018

    La historia real de la aclamada canción "I Can Only Imagine", la canción cristiana contemporánea más...

    Director: Jon Erwin

    Género: Drama

    Actores: Trace Adkins

  • El Justiciero (2014) Full 1080p Latino

    2014
    El Justiciero (2014) Full 1080p Latino

    4.0 2 h 12 min 2014

    Robert McCall, un antiguo agente de la CIA que lleva ahora una vida tranquila, abandona su retiro para...

    Director: Deirdre Horgan

    Género: Acción

    Actores: Yan Dron

Comentarios 0