Sicario (2015) Full 1080p Latino

1.493 vistas
1 estrella2 estrellas3 estrellas4 estrellas5 estrellas (7 votos, promedio: 3,71 de 5)
Cargando…

Información de Sicario (2015) Full 1080p Latino

Datos de la película

  • Calidad: Full 1080p
  • Audio: Español Latino AC3 5.1 BLURAY - Ingles AC3 5.1 BLURAY
  • Subtitulos: Español Latino PGS - Ingles PGS
  • Resolución: 1920x1080p
  • Formato: MKV
  • Codec: H.264
  • Encoder: Dracarys
  • Mediainfo: Clic para Mostrar Datos Ver
  • Format                                   : Matroska
    Format version                           : Version 4 / Version 2
    File size                                : 3.10 GiB
    Duration                                 : 2 h 1 min
    Overall bit rate                         : 3 654 kb/s
    Movie name                               : CinemaniaHDD.net
    Encoded date                             : UTC 2018-09-23 00:48:46 / UTC 2018-09-22T20:34:55Z
    Writing application                      : mkvmerge v15.0.0 ('Duel with the Devil') 64-bit
    Writing library                          : libebml v1.3.5 + libmatroska v1.4.5 / Lavf57.7.2

    Video
    ID                                       : 1
    Format                                   : AVC
    Format/Info                              : Advanced Video Codec
    Format profile                           : High@L4.1
    Format settings                          : CABAC / 4 Ref Frames
    Format settings, CABAC                   : Yes
    Format settings, RefFrames               : 4 frames
    Codec ID                                 : V_MPEG4/ISO/AVC
    Duration                                 : 2 h 1 min
    Bit rate                                 : 2 302 kb/s
    Width                                    : 1 920 pixels
    Height                                   : 1 080 pixels
    Display aspect ratio                     : 16:9
    Frame rate mode                          : Constant
    Frame rate                               : 23.976 (24000/1001) FPS
    Color space                              : YUV
    Chroma subsampling                       : 4:2:0
    Bit depth                                : 8 bits
    Scan type                                : Progressive
    Bits/(Pixel*Frame)                       : 0.046
    Stream size                              : 1.95 GiB (63%)
    Writing library                          : x264 core 148 r2708 86b7198
    Encoding settings                        : cabac=1 / ref=4 / deblock=1:0:0 / analyse=0x3:0x133 / me=esa / subme=10 / psy=1 / psy_rd=1.00:0.00 / mixed_ref=1 / me_range=24 / chroma_me=1 / trellis=2 / 8x8dct=1 / cqm=0 / deadzone=21,11 / fast_pskip=1 / chroma_qp_offset=-2 / threads=34 / lookahead_threads=5 / sliced_threads=0 / nr=0 / decimate=1 / interlaced=0 / bluray_compat=0 / constrained_intra=0 / bframes=8 / b_pyramid=2 / b_adapt=2 / b_bias=0 / direct=3 / weightb=1 / open_gop=0 / weightp=2 / keyint=240 / keyint_min=24 / scenecut=40 / intra_refresh=0 / rc_lookahead=60 / rc=crf / mbtree=1 / crf=20.0 / qcomp=0.60 / qpmin=0 / qpmax=69 / qpstep=4 / vbv_maxrate=62500 / vbv_bufsize=78125 / crf_max=0.0 / nal_hrd=none / filler=0 / ip_ratio=1.40 / aq=1:1.00
    Language                                 : English
    Default                                  : Yes
    Forced                                   : No
    Color range                              : Limited
    Color primaries                          : BT.709
    Transfer characteristics                 : BT.709
    Matrix coefficients                      : BT.709
    Statistics Tags Issue                    : mkvmerge v15.0.0 ('Duel with the Devil') 64-bit 2018-09-23 00:48:46 / mkvmerge v15.0.0 ('Duel with the Devil') 64-bit 2018-09-23 00:48:46 / UTC 2018-09-22T20:34:55Z
    FromStats_BitRate                        : 2354604
    FromStats_Duration                       : 02:01:20.273000000
    FromStats_FrameCount                     : 174552
    FromStats_StreamSize                     : 2142770609

    Audio #1
    ID                                       : 2
    Format                                   : AC-3
    Format/Info                              : Audio Coding 3
    Format settings, Endianness              : Big
    Codec ID                                 : A_AC3
    Duration                                 : 2 h 1 min
    Bit rate mode                            : Constant
    Bit rate                                 : 640 kb/s
    Channel(s)                               : 6 channels
    Channel positions                        : Front: L C R, Side: L R, LFE
    Sampling rate                            : 48.0 kHz
    Frame rate                               : 31.250 FPS (1536 SPF)
    Bit depth                                : 16 bits
    Compression mode                         : Lossy
    Stream size                              : 555 MiB (18%)
    Language                                 : Spanish
    Service kind                             : Complete Main
    Default                                  : Yes
    Forced                                   : No
    Statistics Tags Issue                    : mkvmerge v15.0.0 ('Duel with the Devil') 64-bit 2018-09-23 00:48:46 / mkvmerge v15.0.0 ('Duel with the Devil') 64-bit 2018-09-23 00:48:46 / UTC 2018-09-22T20:34:55Z
    FromStats_BitRate                        : 640000
    FromStats_Duration                       : 02:01:20.320000000
    FromStats_FrameCount                     : 227510
    FromStats_StreamSize                     : 582425600

    Audio #2
    ID                                       : 3
    Format                                   : AC-3
    Format/Info                              : Audio Coding 3
    Format settings, Endianness              : Big
    Codec ID                                 : A_AC3
    Duration                                 : 2 h 1 min
    Bit rate mode                            : Constant
    Bit rate                                 : 640 kb/s
    Channel(s)                               : 6 channels
    Channel positions                        : Front: L C R, Side: L R, LFE
    Sampling rate                            : 48.0 kHz
    Frame rate                               : 31.250 FPS (1536 SPF)
    Bit depth                                : 16 bits
    Compression mode                         : Lossy
    Delay relative to video                  : 64 ms
    Stream size                              : 555 MiB (18%)
    Language                                 : English
    Service kind                             : Complete Main
    Default                                  : No
    Forced                                   : No
    Statistics Tags Issue                    : mkvmerge v15.0.0 ('Duel with the Devil') 64-bit 2018-09-23 00:48:46 / mkvmerge v15.0.0 ('Duel with the Devil') 64-bit 2018-09-23 00:48:46 / UTC 2018-09-22T20:34:55Z
    FromStats_BitRate                        : 640000
    FromStats_Duration                       : 02:01:20.256000000
    FromStats_FrameCount                     : 227508
    FromStats_StreamSize                     : 582420480

    Text #1
    ID                                       : 4
    Format                                   : PGS
    Muxing mode                              : zlib
    Codec ID                                 : S_HDMV/PGS
    Codec ID/Info                            : Picture based subtitle format used on BDs/HD-DVDs
    Language                                 : Spanish
    Default                                  : No
    Forced                                   : No
    Statistics Tags Issue                    : mkvmerge v15.0.0 ('Duel with the Devil') 64-bit 2018-09-23 00:48:46 / mkvmerge v15.0.0 ('Duel with the Devil') 64-bit 2018-09-23 00:48:46 / UTC 2018-09-22T20:34:55Z
    FromStats_BitRate                        : 22596
    FromStats_Duration                       : 01:52:03.133000000
    FromStats_FrameCount                     : 1862
    FromStats_StreamSize                     : 18989604

    Text #2
    ID                                       : 5
    Format                                   : PGS
    Muxing mode                              : zlib
    Codec ID                                 : S_HDMV/PGS
    Codec ID/Info                            : Picture based subtitle format used on BDs/HD-DVDs
    Language                                 : English
    Default                                  : No
    Forced                                   : No
    Statistics Tags Issue                    : mkvmerge v15.0.0 ('Duel with the Devil') 64-bit 2018-09-23 00:48:46 / mkvmerge v15.0.0 ('Duel with the Devil') 64-bit 2018-09-23 00:48:46 / UTC 2018-09-22T20:34:55Z
    FromStats_BitRate                        : 33201
    FromStats_Duration                       : 01:53:47.946000000
    FromStats_FrameCount                     : 2463
    FromStats_StreamSize                     : 28337640

    Menu
    00:00:00.000                             : :Chapter 1
    00:07:14.351                             : :Chapter 2
    00:12:55.108                             : :Chapter 3
    00:20:04.370                             : :Chapter 4
    00:25:24.815                             : :Chapter 5
    00:32:11.596                             : :Chapter 6
    00:39:24.821                             : :Chapter 7
    00:46:15.314                             : :Chapter 8
    00:53:24.576                             : :Chapter 9
    01:01:40.322                             : :Chapter 10
    01:10:49.120                             : :Chapter 11
    01:18:02.887                             : :Chapter 12
    01:30:59.371                             : :Chapter 13
    01:36:57.770                             : :Chapter 14
    01:47:42.039                             : :Chapter 15
    01:54:12.804                             : :Chapter 16

  • Peso: 3.10 GiB

Sinopsis

En la zona fronteriza que se extiende entre Estados Unidos y México la joven Kate Macer, una idealista agente del FBI, es reclutada por una fuerza de élite del Gobierno para luchar contra el narcotráfico. Bajo el mando de Matt Graver, un frío miembro de las fuerzas gubernamentales, y de Alejandro, un enigmático asesor, el equipo emprende una misión que lleva a la mujer a cuestionarse sus convicciones sobre la guerra contra los narcos y los límites de la ley.

Ficha técnica

Video trailer de la película

Enlaces de descarga

Rip de Bluray

Descargar Sicario (2015) Full 1080p Latino




Aportes de DPeliculasHDmega la pass es:dpeliculashdmega.org Aportes de CinemaniaHD la pass es:cinemaniahdd.com

Películas relacionadas

  • The Night Comes For Us (2018) NF 1080p Latino

    2018
    The Night Comes For Us (2018) NF 1080p Latino

    1.0 2h 1m 2018

    The Night Comes For Us (2018) NF 1080p Latino; Mega, Google Drive. Un antiguo sicario debe proteger a...

    Director: Timo Tjahjanto

    Género: Acción

    Actores: Zack Lee

  • Illang: La brigada del lobo (2018) NF 1080p Latino

    2018
    Illang: La brigada del lobo (2018) NF 1080p Latino

    1.0 2h 19m 2018

    Descargar Illang: La brigada del lobo (2018) NF 1080p Latino; Mega, Google Drive. Basada en el anime...

    Director: Kim Jee-woon

    Género: Acción

    Actores: Shin Eun-soo

  • The Padre (2018) WEB-DL 1080p Latino

    2018
    The Padre (2018) WEB-DL 1080p Latino

    3.0 1h 38m 2018

    Descargar The Padre (2018) WEB-DL 1080p Latino; Mega, Google Drive. El juez estadounidense retirado Randall...

    Director: Jonathan Sobol

    Género: Drama

    Actores: Tim Roth

  • Mentes poderosas (2018) 1080p Latino

    2018
    Mentes poderosas (2018) 1080p Latino

    1.0 1h 45m 2018

    Descargar Mentes poderosas (2018) 1080p Latino; Mega, Google Drive. Encarcelados en un mundo adulto...

    Director: Jennifer Yuh Nelson

    Género: Ciencia ficción

    Actores: William Walker

Comentarios 1
  • ocpgaiden - 24 septiembre, 2018

    Gracias por sicario, y esperando sicario 2: dia del soldado, saludos