Si solo pudiera imaginar (2018) Full 1080p Latino

1.636 vistas
1 estrella2 estrellas3 estrellas4 estrellas5 estrellas (3 votos, promedio: 5,00 de 5)
Cargando…

Información de Si solo pudiera imaginar (2018) Full 1080p Latino

Datos de la película

  • Calidad: Full 1080p
  • Audio: Español Latino AC3 5.1 DVD - Ingles DTS 5.1 BLURAY
  • Subtitulos: Español Latino PGS - Ingles PGS
  • Resolución: 1920x1080p
  • Formato: MKV
  • Codec: H.264
  • Encoder: Dracarys
  • Mediainfo: Clic para Mostrar Datos Ver
  • Format                                   : Matroska
    Format version                           : Version 4 / Version 2
    File size                                : 4.72 GiB
    Duration                                 : 1 h 50 min
    Overall bit rate                         : 6 121 kb/s
    Movie name                               : CinemaniaHDD.net
    Encoded date                             : UTC 2018-07-20 17:32:17 / UTC 2018-07-01T01:40:21Z
    Writing application                      : mkvmerge v15.0.0 ('Duel with the Devil') 64-bit
    Writing library                          : libebml v1.3.5 + libmatroska v1.4.5 / Lavf57.7.2

    Video
    ID                                       : 1
    Format                                   : AVC
    Format/Info                              : Advanced Video Codec
    Format profile                           : High@L4.1
    Format settings                          : CABAC / 4 Ref Frames
    Format settings, CABAC                   : Yes
    Format settings, RefFrames               : 4 frames
    Codec ID                                 : V_MPEG4/ISO/AVC
    Duration                                 : 1 h 50 min
    Bit rate                                 : 4 042 kb/s
    Width                                    : 1 920 pixels
    Height                                   : 1 080 pixels
    Display aspect ratio                     : 16:9
    Frame rate mode                          : Constant
    Frame rate                               : 23.976 (24000/1001) FPS
    Color space                              : YUV
    Chroma subsampling                       : 4:2:0
    Bit depth                                : 8 bits
    Scan type                                : Progressive
    Bits/(Pixel*Frame)                       : 0.081
    Stream size                              : 3.12 GiB (66%)
    Title                                    : Si solo pudiera imaginar (2018) Full 1080p Latino
    Writing library                          : x264 core 155 r2893 b00bcaf
    Encoding settings                        : cabac=1 / ref=4 / deblock=1:0:0 / analyse=0x3:0x133 / me=esa / subme=10 / psy=1 / psy_rd=1.00:0.00 / mixed_ref=1 / me_range=24 / chroma_me=1 / trellis=2 / 8x8dct=1 / cqm=0 / deadzone=21,11 / fast_pskip=1 / chroma_qp_offset=-2 / threads=24 / lookahead_threads=4 / sliced_threads=0 / nr=0 / decimate=1 / interlaced=0 / bluray_compat=0 / constrained_intra=0 / bframes=8 / b_pyramid=2 / b_adapt=2 / b_bias=0 / direct=3 / weightb=1 / open_gop=0 / weightp=2 / keyint=240 / keyint_min=24 / scenecut=40 / intra_refresh=0 / rc_lookahead=60 / rc=crf / mbtree=1 / crf=20.0 / qcomp=0.60 / qpmin=0 / qpmax=69 / qpstep=4 / vbv_maxrate=62500 / vbv_bufsize=78125 / crf_max=0.0 / nal_hrd=none / filler=0 / ip_ratio=1.40 / aq=1:1.00
    Language                                 : English
    Default                                  : Yes
    Forced                                   : No
    Color range                              : Limited
    Color primaries                          : BT.709
    Transfer characteristics                 : BT.709
    Matrix coefficients                      : BT.709
    Statistics Tags Issue                    : mkvmerge v15.0.0 ('Duel with the Devil') 64-bit 2018-07-20 17:32:17 / mkvmerge v15.0.0 ('Duel with the Devil') 64-bit 2018-07-20 17:32:17 / UTC 2018-07-01T01:40:21Z
    FromStats_BitRate                        : 4132620
    FromStats_Duration                       : 01:50:20.447000000
    FromStats_FrameCount                     : 158732
    FromStats_StreamSize                     : 3419974427

    Audio #1
    ID                                       : 2
    Format                                   : AC-3
    Format/Info                              : Audio Coding 3
    Format settings, Endianness              : Big
    Codec ID                                 : A_AC3
    Duration                                 : 1 h 50 min
    Bit rate mode                            : Constant
    Bit rate                                 : 448 kb/s
    Channel(s)                               : 6 channels
    Channel positions                        : Front: L C R, Side: L R, LFE
    Sampling rate                            : 48.0 kHz
    Frame rate                               : 31.250 FPS (1536 SPF)
    Bit depth                                : 16 bits
    Compression mode                         : Lossy
    Delay relative to video                  : 24 ms
    Stream size                              : 354 MiB (7%)
    Language                                 : Spanish
    Service kind                             : Complete Main
    Default                                  : Yes
    Forced                                   : No
    Statistics Tags Issue                    : mkvmerge v15.0.0 ('Duel with the Devil') 64-bit 2018-07-20 17:32:17 / mkvmerge v15.0.0 ('Duel with the Devil') 64-bit 2018-07-20 17:32:17 / UTC 2018-07-01T01:40:21Z
    FromStats_BitRate                        : 448000
    FromStats_Duration                       : 01:50:20.128000000
    FromStats_FrameCount                     : 206879
    FromStats_StreamSize                     : 370727168

    Audio #2
    ID                                       : 3
    Format                                   : DTS
    Format/Info                              : Digital Theater Systems
    Mode                                     : 16
    Format settings, Endianness              : Big
    Codec ID                                 : A_DTS
    Duration                                 : 1 h 50 min
    Bit rate mode                            : Constant
    Bit rate                                 : 1 509 kb/s
    Channel(s)                               : 6 channels
    Channel positions                        : Front: L C R, Side: L R, LFE
    Sampling rate                            : 48.0 kHz
    Frame rate                               : 93.750 FPS (512 SPF)
    Bit depth                                : 24 bits
    Compression mode                         : Lossy
    Stream size                              : 1.16 GiB (25%)
    Language                                 : English
    Default                                  : No
    Forced                                   : No
    Statistics Tags Issue                    : mkvmerge v15.0.0 ('Duel with the Devil') 64-bit 2018-07-20 17:32:17 / mkvmerge v15.0.0 ('Duel with the Devil') 64-bit 2018-07-20 17:32:17 / UTC 2018-07-01T01:40:21Z
    FromStats_BitRate                        : 1508999
    FromStats_Duration                       : 01:50:20.459000000
    FromStats_FrameCount                     : 620668
    FromStats_StreamSize                     : 1248784016

    Text #1
    ID                                       : 4
    Format                                   : PGS
    Muxing mode                              : zlib
    Codec ID                                 : S_HDMV/PGS
    Codec ID/Info                            : Picture based subtitle format used on BDs/HD-DVDs
    Language                                 : English
    Default                                  : No
    Forced                                   : No
    Statistics Tags Issue                    : mkvmerge v15.0.0 ('Duel with the Devil') 64-bit 2018-07-20 17:32:17 / mkvmerge v15.0.0 ('Duel with the Devil') 64-bit 2018-07-20 17:32:17 / UTC 2018-07-01T01:40:21Z
    FromStats_BitRate                        : 34184
    FromStats_Duration                       : 01:48:50.876000000
    FromStats_FrameCount                     : 3198
    FromStats_StreamSize                     : 27906632

    Text #2
    ID                                       : 5
    Format                                   : PGS
    Muxing mode                              : zlib
    Codec ID                                 : S_HDMV/PGS
    Codec ID/Info                            : Picture based subtitle format used on BDs/HD-DVDs
    Language                                 : Spanish
    Default                                  : No
    Forced                                   : No
    Statistics Tags Issue                    : mkvmerge v15.0.0 ('Duel with the Devil') 64-bit 2018-07-20 17:32:17 / mkvmerge v15.0.0 ('Duel with the Devil') 64-bit 2018-07-20 17:32:17 / UTC 2018-07-01T01:40:21Z
    FromStats_BitRate                        : 30366
    FromStats_Duration                       : 01:49:03.763000000
    FromStats_FrameCount                     : 2890
    FromStats_StreamSize                     : 24839133

    Menu
    00:00:00.000                             : :Chapter 1
    00:08:27.882                             : :Chapter 2
    00:14:29.911                             : :Chapter 3
    00:21:22.323                             : :Chapter 4
    00:28:10.731                             : :Chapter 5
    00:36:22.222                             : :Chapter 6
    00:44:25.705                             : :Chapter 7
    00:52:21.180                             : :Chapter 8
    01:01:10.709                             : :Chapter 9
    01:09:12.190                             : :Chapter 10
    01:13:46.464                             : :Chapter 11
    01:22:25.983                             : :Chapter 12
    01:26:10.248                             : :Chapter 13
    01:34:16.734                             : :Chapter 14
    01:41:24.161                             : :Chapter 15
    01:45:43.420                             : :Chapter 16

  • Peso: 4.72 GiB

Sinopsis

La historia real de la aclamada canción “I Can Only Imagine”, la canción cristiana contemporánea más escuchada de todos los tiempos, compuesta por el cantante Bart Millard, de la banda cristiana MercyMe, basado en su propia vida.

Ficha técnica

Video trailer de la película

Enlaces de descarga

Rip de Bluray

Descargar Si solo pudiera imaginar (2018) Full 1080p Latino




Aportes de DPeliculasHDmega la pass es:dpeliculashdmega.org Aportes de CinemaniaHD la pass es:cinemaniahdd.com

Películas relacionadas

  • Tully (2018) 1080p Latino

    2018
    Tully (2018) 1080p Latino

    0.0 1 h 35 min 2018

    La historia de una mujer con tres hijos que, incapaz de lidiar con su bebé recién nacido, contrata...

    Director: Jason Reitman

    Género: Comedia

    Actores: Stormy Ent

  • El Justiciero (2014) Full 1080p Latino

    2014
    El Justiciero (2014) Full 1080p Latino

    4.3 2 h 12 min 2014

    Robert McCall, un antiguo agente de la CIA que lleva ahora una vida tranquila, abandona su retiro para...

    Director: Deirdre Horgan

    Género: Acción

    Actores: Yan Dron

  • James Bond Live and Let Die (1973) Full 1080p Latino

    1973
    James Bond Live and Let Die (1973) Full 1080p Latino

    0.0 2 h 1 min 1973

    En tan sólo veinticuatro horas, tres agentes del servicio secreto británico que investigaban una red...

    Director: Guy Hamilton

    Género: Acción

    Actores: Yaphet Kotto

Comentarios 1
  • fernando - 09 julio, 2018

    gracias por el aporte. saben si mas adelante la conseguirán con audio dual? gracias.