Sexy por accidente (2018) Full 1080p Latino

651 vistas
1 estrella2 estrellas3 estrellas4 estrellas5 estrellas (1 votos, promedio: 5,00 de 5)
Cargando…

Información de Sexy por accidente (2018) Full 1080p Latino

Datos de la película

  • Calidad: Full 1080p
  • Audio: Español Latino DTS 5.1 BLURAY - Ingles DTS 5.1 BLURAY
  • Subtitulos: Español Latino PGS - Ingles PGS
  • Resolución: 1920x1080p
  • Formato: MKV
  • Codec: H.264
  • Encoder: Dracarys
  • Mediainfo: Clic para Mostrar Datos Ver
  • Format                                   : Matroska
    Format version                           : Version 4 / Version 2
    File size                                : 4.07 GiB
    Duration                                 : 1 h 50 min
    Overall bit rate                         : 5 248 kb/s
    Movie name                               : CinemaniaHDD.net
    Encoded date                             : UTC 2018-07-14 05:07:49 / UTC 2018-07-13T00:39:09Z
    Writing application                      : mkvmerge v15.0.0 ('Duel with the Devil') 64-bit
    Writing library                          : libebml v1.3.5 + libmatroska v1.4.5 / Lavf57.7.2

    Video
    ID                                       : 1
    Format                                   : AVC
    Format/Info                              : Advanced Video Codec
    Format profile                           : High@L4.1
    Format settings                          : CABAC / 4 Ref Frames
    Format settings, CABAC                   : Yes
    Format settings, RefFrames               : 4 frames
    Codec ID                                 : V_MPEG4/ISO/AVC
    Duration                                 : 1 h 50 min
    Bit rate                                 : 2 867 kb/s
    Width                                    : 1 920 pixels
    Height                                   : 1 080 pixels
    Display aspect ratio                     : 16:9
    Frame rate mode                          : Constant
    Frame rate                               : 23.976 (24000/1001) FPS
    Color space                              : YUV
    Chroma subsampling                       : 4:2:0
    Bit depth                                : 8 bits
    Scan type                                : Progressive
    Bits/(Pixel*Frame)                       : 0.058
    Stream size                              : 2.22 GiB (55%)
    Title                                    : Sexy por accidente (2018) Full 1080p Latino
    Writing library                          : x264 core 148 r2708 86b7198
    Encoding settings                        : cabac=1 / ref=4 / deblock=1:0:0 / analyse=0x3:0x133 / me=esa / subme=10 / psy=1 / psy_rd=1.00:0.00 / mixed_ref=1 / me_range=24 / chroma_me=1 / trellis=2 / 8x8dct=1 / cqm=0 / deadzone=21,11 / fast_pskip=1 / chroma_qp_offset=-2 / threads=34 / lookahead_threads=5 / sliced_threads=0 / nr=0 / decimate=1 / interlaced=0 / bluray_compat=0 / constrained_intra=0 / bframes=8 / b_pyramid=2 / b_adapt=2 / b_bias=0 / direct=3 / weightb=1 / open_gop=0 / weightp=2 / keyint=240 / keyint_min=24 / scenecut=40 / intra_refresh=0 / rc_lookahead=60 / rc=crf / mbtree=1 / crf=20.0 / qcomp=0.60 / qpmin=0 / qpmax=69 / qpstep=4 / vbv_maxrate=62500 / vbv_bufsize=78125 / crf_max=0.0 / nal_hrd=none / filler=0 / ip_ratio=1.40 / aq=1:1.00
    Language                                 : English
    Default                                  : Yes
    Forced                                   : No
    Color range                              : Limited
    Color primaries                          : BT.709
    Transfer characteristics                 : BT.709
    Matrix coefficients                      : BT.709
    Statistics Tags Issue                    : mkvmerge v15.0.0 ('Duel with the Devil') 64-bit 2018-07-14 05:07:49 / mkvmerge v15.0.0 ('Duel with the Devil') 64-bit 2018-07-14 05:07:49 / UTC 2018-07-13T00:39:09Z
    FromStats_BitRate                        : 2910211
    FromStats_Duration                       : 01:50:58.527000000
    FromStats_FrameCount                     : 159645
    FromStats_StreamSize                     : 2422214902

    Audio #1
    ID                                       : 2
    Format                                   : DTS
    Format/Info                              : Digital Theater Systems
    Mode                                     : 16
    Format settings, Endianness              : Big
    Codec ID                                 : A_DTS
    Duration                                 : 1 h 50 min
    Bit rate mode                            : Constant
    Bit rate                                 : 768 kb/s
    Channel(s)                               : 6 channels
    Channel positions                        : Front: L C R, Side: L R, LFE
    Sampling rate                            : 48.0 kHz
    Frame rate                               : 93.750 FPS (512 SPF)
    Bit depth                                : 24 bits
    Compression mode                         : Lossy
    Stream size                              : 610 MiB (15%)
    Language                                 : Spanish
    Default                                  : Yes
    Forced                                   : No
    Statistics Tags Issue                    : mkvmerge v15.0.0 ('Duel with the Devil') 64-bit 2018-07-14 05:07:49 / mkvmerge v15.0.0 ('Duel with the Devil') 64-bit 2018-07-14 05:07:49 / UTC 2018-07-13T00:39:09Z
    FromStats_BitRate                        : 767999
    FromStats_Duration                       : 01:50:58.518000000
    FromStats_FrameCount                     : 624236
    FromStats_StreamSize                     : 639217664

    Audio #2
    ID                                       : 3
    Format                                   : DTS
    Format/Info                              : Digital Theater Systems
    Mode                                     : 16
    Format settings, Endianness              : Big
    Codec ID                                 : A_DTS
    Duration                                 : 1 h 50 min
    Bit rate mode                            : Constant
    Bit rate                                 : 1 509 kb/s
    Channel(s)                               : 6 channels
    Channel positions                        : Front: L C R, Side: L R, LFE
    Sampling rate                            : 48.0 kHz
    Frame rate                               : 93.750 FPS (512 SPF)
    Bit depth                                : 24 bits
    Compression mode                         : Lossy
    Stream size                              : 1.17 GiB (29%)
    Language                                 : English
    Default                                  : No
    Forced                                   : No
    Statistics Tags Issue                    : mkvmerge v15.0.0 ('Duel with the Devil') 64-bit 2018-07-14 05:07:49 / mkvmerge v15.0.0 ('Duel with the Devil') 64-bit 2018-07-14 05:07:49 / UTC 2018-07-13T00:39:09Z
    FromStats_BitRate                        : 1508999
    FromStats_Duration                       : 01:50:58.518000000
    FromStats_FrameCount                     : 624236
    FromStats_StreamSize                     : 1255962832

    Text #1
    ID                                       : 4
    Format                                   : PGS
    Muxing mode                              : zlib
    Codec ID                                 : S_HDMV/PGS
    Codec ID/Info                            : Picture based subtitle format used on BDs/HD-DVDs
    Language                                 : English
    Default                                  : No
    Forced                                   : No
    Statistics Tags Issue                    : mkvmerge v15.0.0 ('Duel with the Devil') 64-bit 2018-07-14 05:07:49 / mkvmerge v15.0.0 ('Duel with the Devil') 64-bit 2018-07-14 05:07:49 / UTC 2018-07-13T00:39:09Z
    FromStats_BitRate                        : 59871
    FromStats_Duration                       : 01:49:33.192000000
    FromStats_FrameCount                     : 4197
    FromStats_StreamSize                     : 49193345

    Text #2
    ID                                       : 5
    Format                                   : PGS
    Muxing mode                              : zlib
    Codec ID                                 : S_HDMV/PGS
    Codec ID/Info                            : Picture based subtitle format used on BDs/HD-DVDs
    Language                                 : Spanish
    Default                                  : No
    Forced                                   : No
    Statistics Tags Issue                    : mkvmerge v15.0.0 ('Duel with the Devil') 64-bit 2018-07-14 05:07:49 / mkvmerge v15.0.0 ('Duel with the Devil') 64-bit 2018-07-14 05:07:49 / UTC 2018-07-13T00:39:09Z
    FromStats_BitRate                        : 46948
    FromStats_Duration                       : 01:49:10.502000000
    FromStats_FrameCount                     : 3591
    FromStats_StreamSize                     : 38442298

    Text #3
    ID                                       : 6
    Format                                   : PGS
    Muxing mode                              : zlib
    Codec ID                                 : S_HDMV/PGS
    Codec ID/Info                            : Picture based subtitle format used on BDs/HD-DVDs
    Title                                    : Forzados
    Language                                 : Spanish
    Default                                  : Yes
    Forced                                   : Yes
    Statistics Tags Issue                    : mkvmerge v15.0.0 ('Duel with the Devil') 64-bit 2018-07-14 05:07:49 / mkvmerge v15.0.0 ('Duel with the Devil') 64-bit 2018-07-14 05:07:49 / UTC 2018-07-13T00:39:09Z
    FromStats_BitRate                        : 538
    FromStats_Duration                       : 01:49:05.205000000
    FromStats_FrameCount                     : 39
    FromStats_StreamSize                     : 440795

    Menu
    00:00:00.000                             : :Chapter 1
    00:07:30.659                             : :Chapter 2
    00:13:31.185                             : :Chapter 3
    00:20:21.846                             : :Chapter 4
    00:25:49.131                             : :Chapter 5
    00:30:03.385                             : :Chapter 6
    00:34:31.194                             : :Chapter 7
    00:38:47.492                             : :Chapter 8
    00:44:13.734                             : :Chapter 9
    00:47:59.251                             : :Chapter 10
    00:53:46.306                             : :Chapter 11
    00:58:07.526                             : :Chapter 12
    01:04:03.590                             : :Chapter 13
    01:11:54.310                             : :Chapter 14
    01:19:13.415                             : :Chapter 15
    01:27:14.062                             : :Chapter 16
    01:31:33.154                             : :Chapter 17
    01:37:00.565                             : :Chapter 18
    01:44:10.786                             : :Chapter 19
    01:46:17.580                             : :Chapter 20

  • Peso: 4.07 GiB

Sinopsis

Una chica corriente, que se enfrenta cada día a sus inseguridades, despierta de una caída creyendo que de repente es la mujer más bella y capaz del planeta. Con esta nueva confianza en sí misma se siente capaz de vivir su vida sin complejos ni limitaciones pero, ¿qué pasará cuando se dé cuenta de que su apariencia en realidad no ha cambiado?

Ficha técnica

Video trailer de la película

Enlaces de descarga

Rip de Bluray

Descargar Sexy por accidente (2018) Full 1080p Latino




Aportes de DPeliculasHDmega la pass es:dpeliculashdmega.org Aportes de CinemaniaHD la pass es:cinemaniahdd.com
Guardado en : Comedia , FULL 1080p Plateadas

Películas relacionadas

  • ¡Hombre al agua! (2018) WEB-DL 1080p Subtitulado

    2018
    ¡Hombre al agua! (2018) WEB-DL 1080p Subtitulado

    0.0 1 h 52 min 2018

    Kate es una madre soltera, trabajadora, madre de tres hijas, contratada para limpiar un yate de lujo...

    Director: Rob Greenberg

    Género: Comedia

    Actores: Toby Hargrave

  • Super Troopers 2 (2018) Full 1080p Latino

    2018
    Super Troopers 2 (2018) Full 1080p Latino

    0.0 1 h 39 min 2018

    Regresa la unidad de ley y orden favorita del público. Cuando surge un problema fronterizo internacional...

    Director: Jay Chandrasekhar

    Género: Comedia

    Actores: Will Sasso

  • Isla de perros (2018) Full 1080p Latino

    2018
    Isla de perros (2018) Full 1080p Latino

    5.0 1 h 41 min 2018

    Después de que todas las mascotas caninas de Megasaki City sean exiliadas a una isla que es un vertedero,...

    Director: Wes Anderson

    Género: Animación

    Actores: Yoko Ono

  • Verdad o reto (2018) Full 1080p Latino

    2018
    Verdad o reto (2018) Full 1080p Latino

    3.4 1 h 40 min 2018

    Un grupo de amigos comienza a jugar a "Verdad o atrevimiento", pero rápidamente descubren que algo que...

    Director: Jeff Wadlow

    Género: FULL 1080p Plateadas

    Actores: Violett Beane

  • Inmersión (2017) Full 1080p Subtitulado

    2018
    Inmersión (2017) Full 1080p Subtitulado

    0.0 1 h 51 min 2018

    James More es un ingeniero hidráulico que ha sido tomado como rehén en Somalia por los terroristas...

    Director: Wim Wenders

    Género: Drama

    Actores: Virgile Sicard

Comentarios 0