Se7en, los siete pecados capitales (1995) Full 1080p Latino

1.303 vistas
1 estrella2 estrellas3 estrellas4 estrellas5 estrellas (6 votos, promedio: 5,00 de 5)
Cargando…

Información de Se7en, los siete pecados capitales (1995) Full 1080p Latino

Datos de la película

  • Calidad: Full 1080p
  • Audio: Español Latino AC3 2.0 BLURAY - Ingles DTS 5.1 BLURAY
  • Subtitulos: Español Latino PGS - Ingles PGS
  • Resolución: 1920x1080p
  • Formato: MKV
  • Codec: H.264
  • Encoder: Dracarys
  • Mediainfo: Clic para Mostrar Datos Ver
  • Format                                   : Matroska
    Format version                           : Version 4 / Version 2
    File size                                : 6.86 GiB
    Duration                                 : 2 h 6 min
    Overall bit rate                         : 7 739 kb/s
    Movie name                               : CinemaniaHDD.net
    Encoded date                             : UTC 2018-05-25 03:27:24 / UTC 2018-05-24T00:25:46Z
    Writing application                      : mkvmerge v15.0.0 ('Duel with the Devil') 64-bit
    Writing library                          : libebml v1.3.5 + libmatroska v1.4.5 / Lavf57.7.2

    Video
    ID                                       : 1
    Format                                   : AVC
    Format/Info                              : Advanced Video Codec
    Format profile                           : High@L4.1
    Format settings                          : CABAC / 4 Ref Frames
    Format settings, CABAC                   : Yes
    Format settings, RefFrames               : 4 frames
    Codec ID                                 : V_MPEG4/ISO/AVC
    Duration                                 : 2 h 6 min
    Bit rate                                 : 5 884 kb/s
    Width                                    : 1 920 pixels
    Height                                   : 1 080 pixels
    Display aspect ratio                     : 16:9
    Frame rate mode                          : Constant
    Frame rate                               : 23.976 (24000/1001) FPS
    Color space                              : YUV
    Chroma subsampling                       : 4:2:0
    Bit depth                                : 8 bits
    Scan type                                : Progressive
    Bits/(Pixel*Frame)                       : 0.118
    Stream size                              : 5.21 GiB (76%)
    Title                                    : Se7en, los siete pecados capitales (1995) Full 1080p Latino
    Writing library                          : x264 core 148 r2708 86b7198
    Encoding settings                        : cabac=1 / ref=4 / deblock=1:0:0 / analyse=0x3:0x133 / me=esa / subme=9 / psy=1 / psy_rd=1.00:0.00 / mixed_ref=1 / me_range=16 / chroma_me=1 / trellis=2 / 8x8dct=1 / cqm=0 / deadzone=21,11 / fast_pskip=1 / chroma_qp_offset=-2 / threads=34 / lookahead_threads=2 / sliced_threads=0 / nr=0 / decimate=1 / interlaced=0 / bluray_compat=0 / constrained_intra=0 / bframes=3 / b_pyramid=2 / b_adapt=2 / b_bias=0 / direct=3 / weightb=1 / open_gop=0 / weightp=2 / keyint=240 / keyint_min=24 / scenecut=40 / intra_refresh=0 / rc_lookahead=60 / rc=crf / mbtree=1 / crf=20.0 / qcomp=0.60 / qpmin=0 / qpmax=69 / qpstep=4 / vbv_maxrate=62500 / vbv_bufsize=78125 / crf_max=0.0 / nal_hrd=none / filler=0 / ip_ratio=1.40 / aq=1:1.00
    Language                                 : English
    Default                                  : Yes
    Forced                                   : No
    Color range                              : Limited
    Color primaries                          : BT.709
    Transfer characteristics                 : BT.709
    Matrix coefficients                      : BT.709
    Statistics Tags Issue                    : mkvmerge v15.0.0 ('Duel with the Devil') 64-bit 2018-05-25 03:27:24 / mkvmerge v15.0.0 ('Duel with the Devil') 64-bit 2018-05-25 03:27:24 / UTC 2018-05-24T00:25:46Z
    FromStats_BitRate                        : 6005235
    FromStats_Duration                       : 02:06:49.644000000
    FromStats_FrameCount                     : 182449
    FromStats_StreamSize                     : 5712213510

    Audio #1
    ID                                       : 2
    Format                                   : AC-3
    Format/Info                              : Audio Coding 3
    Mode                                     : Dolby Digital
    Format settings, Endianness              : Big
    Codec ID                                 : A_AC3
    Duration                                 : 2 h 6 min
    Bit rate mode                            : Constant
    Bit rate                                 : 192 kb/s
    Channel(s)                               : 2 channels
    Channel positions                        : Front: L R
    Sampling rate                            : 48.0 kHz
    Frame rate                               : 31.250 FPS (1536 SPF)
    Bit depth                                : 16 bits
    Compression mode                         : Lossy
    Stream size                              : 174 MiB (2%)
    Language                                 : Spanish
    Service kind                             : Complete Main
    Default                                  : Yes
    Forced                                   : No
    Statistics Tags Issue                    : mkvmerge v15.0.0 ('Duel with the Devil') 64-bit 2018-05-25 03:27:24 / mkvmerge v15.0.0 ('Duel with the Devil') 64-bit 2018-05-25 03:27:24 / UTC 2018-05-24T00:25:46Z
    FromStats_BitRate                        : 192000
    FromStats_Duration                       : 02:06:49.664000000
    FromStats_FrameCount                     : 237802
    FromStats_StreamSize                     : 182631936

    Audio #2
    ID                                       : 3
    Format                                   : DTS
    Format/Info                              : Digital Theater Systems
    Format profile                           : ES Matrix / Core
    Mode                                     : 16
    Format settings, Endianness              : Big
    Codec ID                                 : A_DTS
    Duration                                 : 2 h 6 min
    Bit rate mode                            : Constant
    Bit rate                                 : 1 509 kb/s
    Channel(s)                               : 7 channels / 6 channels
    Channel positions                        : Front: L C R, Side: L R, Back: C, LFE / Front: L C R, Side: L R, LFE
    Sampling rate                            : 48.0 kHz
    Frame rate                               : 93.750 FPS (512 SPF)
    Bit depth                                : 24 bits
    Compression mode                         : Lossy
    Stream size                              : 1.34 GiB (19%)
    Language                                 : English
    Default                                  : No
    Forced                                   : No
    Statistics Tags Issue                    : mkvmerge v15.0.0 ('Duel with the Devil') 64-bit 2018-05-25 03:27:24 / mkvmerge v15.0.0 ('Duel with the Devil') 64-bit 2018-05-25 03:27:24 / UTC 2018-05-24T00:25:46Z
    FromStats_BitRate                        : 1508999
    FromStats_Duration                       : 02:06:49.643000000
    FromStats_FrameCount                     : 713404
    FromStats_StreamSize                     : 1435368848

    Text #1
    ID                                       : 4
    Format                                   : PGS
    Muxing mode                              : zlib
    Codec ID                                 : S_HDMV/PGS
    Codec ID/Info                            : Picture based subtitle format used on BDs/HD-DVDs
    Language                                 : English
    Default                                  : No
    Forced                                   : No
    Statistics Tags Issue                    : mkvmerge v15.0.0 ('Duel with the Devil') 64-bit 2018-05-25 03:27:24 / mkvmerge v15.0.0 ('Duel with the Devil') 64-bit 2018-05-25 03:27:24 / UTC 2018-05-24T00:25:46Z
    FromStats_BitRate                        : 35660
    FromStats_Duration                       : 02:06:19.905000000
    FromStats_FrameCount                     : 3318
    FromStats_StreamSize                     : 33787779

    Text #2
    ID                                       : 5
    Format                                   : PGS
    Muxing mode                              : zlib
    Codec ID                                 : S_HDMV/PGS
    Codec ID/Info                            : Picture based subtitle format used on BDs/HD-DVDs
    Language                                 : Spanish
    Default                                  : No
    Forced                                   : No
    Statistics Tags Issue                    : mkvmerge v15.0.0 ('Duel with the Devil') 64-bit 2018-05-25 03:27:24 / mkvmerge v15.0.0 ('Duel with the Devil') 64-bit 2018-05-25 03:27:24 / UTC 2018-05-24T00:25:46Z
    FromStats_BitRate                        : 32341
    FromStats_Duration                       : 02:05:44.745000000
    FromStats_FrameCount                     : 3144
    FromStats_StreamSize                     : 30501128

    Menu
    00:00:00.000                             : :Chapter 1
    00:04:11.251                             : :Chapter 2
    00:06:19.254                             : :Chapter 3
    00:07:33.745                             : :Chapter 4
    00:14:47.512                             : :Chapter 5
    00:17:07.443                             : :Chapter 6
    00:18:11.465                             : :Chapter 7
    00:21:42.176                             : :Chapter 8
    00:24:26.757                             : :Chapter 9
    00:29:28.517                             : :Chapter 10
    00:30:27.034                             : :Chapter 11
    00:33:13.158                             : :Chapter 12
    00:37:28.455                             : :Chapter 13
    00:42:23.541                             : :Chapter 14
    00:43:32.860                             : :Chapter 15
    00:47:43.235                             : :Chapter 16
    00:50:18.390                             : :Chapter 17
    00:54:24.803                             : :Chapter 18
    00:57:28.195                             : :Chapter 19
    01:01:45.160                             : :Chapter 20
    01:04:19.606                             : :Chapter 21
    01:07:26.584                             : :Chapter 22
    01:14:45.022                             : :Chapter 23
    01:20:34.038                             : :Chapter 24
    01:24:07.251                             : :Chapter 25
    01:25:04.141                             : :Chapter 26
    01:28:15.499                             : :Chapter 27
    01:33:05.163                             : :Chapter 28
    01:33:58.800                             : :Chapter 29
    01:36:46.968                             : :Chapter 30
    01:39:04.480                             : :Chapter 31
    01:40:53.798                             : :Chapter 32
    01:44:05.030                             : :Chapter 33
    01:50:53.856                             : :Chapter 34
    01:53:06.196                             : :Chapter 35
    01:56:56.635                             : :Chapter 36
    02:02:00.313                             : :Chapter 37

  • Peso: 6.86 GiB

Sinopsis

El teniente Somerset, del departamento de homicidios, está a punto de jubilarse y ser reemplazado por el ambicioso y brillante detective David Mills. Ambos tendrán que colaborar en la resolución de una serie de asesinatos cometidos por un psicópata que toma como base la relación de los siete pecados capitales: gula, pereza, soberbia, avaricia, envidia, lujuria e ira. Los cuerpos de las víctimas, sobre los que el asesino se ensaña de manera impúdica, se convertirán para los policías en un enigma que les obligará a viajar al horror y la barbarie más absoluta.

Ficha técnica

Video trailer de la película

Enlaces de descarga

Rip de Bluray

Descargar Se7en, los siete pecados capitales (1995) Full 1080p Latino




Aportes de DPeliculasHDmega la pass es:dpeliculashdmega.org Aportes de CinemaniaHD la pass es:cinemaniahdd.com

Películas relacionadas

Comentarios 2
  • Aaron - 03 junio, 2018

    Los en laces de este sitio y de los demás en MEGA no sirven, ayuda plase

    • dpelis - 04 junio, 2018

      de mega debe usar gestor descarga.