Saw VIII (Jigsaw) (2017) Full 1080p Latino

2.173 vistas
1 estrella2 estrellas3 estrellas4 estrellas5 estrellas (2 votos, promedio: 5,00 de 5)
Cargando…

Información de Saw VIII (Jigsaw) (2017) Full 1080p Latino

Datos de la película

  • Calidad: Full 1080p
  • Audio: Español Latino AC3 5.1 BLURAY - Ingles DTS 5.1 BLURAY
  • Subtitulos: Español Latino PGS - Ingles PGS
  • Resolución: 1920X1080p
  • Formato: MKV
  • Codec: H.264
  • Encoder: Dracarys
  • Mediainfo: Clic para Mostrar Datos Ver
  • Format                                   : Matroska
    Format version                           : Version 4 / Version 2
    File size                                : 2.96 GiB
    Duration                                 : 1 h 31 min
    Overall bit rate                         : 4 604 kb/s
    Movie name                               : CinemaniaHDD.com
    Encoded date                             : UTC 2018-01-20 22:36:05 / UTC 2018-01-20T19:41:44Z
    Writing application                      : mkvmerge v15.0.0 ('Duel with the Devil') 64-bit
    Writing library                          : libebml v1.3.5 + libmatroska v1.4.5 / Lavf57.7.2

    Video
    ID                                       : 1
    Format                                   : AVC
    Format/Info                              : Advanced Video Codec
    Format profile                           : High@L4.1
    Format settings                          : CABAC / 4 Ref Frames
    Format settings, CABAC                   : Yes
    Format settings, RefFrames               : 4 frames
    Codec ID                                 : V_MPEG4/ISO/AVC
    Duration                                 : 1 h 31 min
    Bit rate                                 : 2 363 kb/s
    Width                                    : 1 916 pixels
    Height                                   : 1 078 pixels
    Display aspect ratio                     : 16:9
    Original display aspect ratio            : 16:9
    Frame rate mode                          : Constant
    Frame rate                               : 23.976 (24000/1001) FPS
    Color space                              : YUV
    Chroma subsampling                       : 4:2:0
    Bit depth                                : 8 bits
    Scan type                                : Progressive
    Bits/(Pixel*Frame)                       : 0.048
    Stream size                              : 1.52 GiB (51%)
    Title                                    : Saw VIII (Jigsaw) (2017) Full 1080p Latino
    Writing library                          : x264 core 148 r2708 86b7198
    Encoding settings                        : cabac=1 / ref=4 / deblock=1:0:0 / analyse=0x3:0x133 / me=esa / subme=10 / psy=1 / psy_rd=1.00:0.00 / mixed_ref=1 / me_range=24 / chroma_me=1 / trellis=2 / 8x8dct=1 / cqm=0 / deadzone=21,11 / fast_pskip=1 / chroma_qp_offset=-2 / threads=34 / lookahead_threads=5 / sliced_threads=0 / nr=0 / decimate=1 / interlaced=0 / bluray_compat=0 / constrained_intra=0 / bframes=8 / b_pyramid=2 / b_adapt=2 / b_bias=0 / direct=3 / weightb=1 / open_gop=0 / weightp=2 / keyint=240 / keyint_min=24 / scenecut=40 / intra_refresh=0 / rc_lookahead=60 / rc=crf / mbtree=1 / crf=20.0 / qcomp=0.60 / qpmin=0 / qpmax=69 / qpstep=4 / vbv_maxrate=62500 / vbv_bufsize=78125 / crf_max=0.0 / nal_hrd=none / filler=0 / ip_ratio=1.40 / aq=1:1.00
    Language                                 : English
    Default                                  : Yes
    Forced                                   : No
    Color range                              : Limited
    Color primaries                          : BT.709
    Transfer characteristics                 : BT.709
    Matrix coefficients                      : BT.709
    Statistics Tags Issue                    : mkvmerge v15.0.0 ('Duel with the Devil') 64-bit 2018-01-20 22:36:05 / mkvmerge v15.0.0 ('Duel with the Devil') 64-bit 2018-01-20 22:36:05 / UTC 2018-01-20T19:41:44Z
    FromStats_BitRate                        : 2415917
    FromStats_Duration                       : 01:31:56.970000000
    FromStats_FrameCount                     : 132275
    FromStats_StreamSize                     : 1666067724

    Audio #1
    ID                                       : 2
    Format                                   : AC-3
    Format/Info                              : Audio Coding 3
    Format settings, Endianness              : Big
    Codec ID                                 : A_AC3
    Duration                                 : 1 h 31 min
    Bit rate mode                            : Constant
    Bit rate                                 : 640 kb/s
    Channel(s)                               : 6 channels
    Channel positions                        : Front: L C R, Side: L R, LFE
    Sampling rate                            : 48.0 kHz
    Frame rate                               : 31.250 FPS (1536 SPF)
    Bit depth                                : 16 bits
    Compression mode                         : Lossy
    Stream size                              : 421 MiB (14%)
    Language                                 : Spanish
    Service kind                             : Complete Main
    Default                                  : Yes
    Forced                                   : No
    Statistics Tags Issue                    : mkvmerge v15.0.0 ('Duel with the Devil') 64-bit 2018-01-20 22:36:05 / mkvmerge v15.0.0 ('Duel with the Devil') 64-bit 2018-01-20 22:36:05 / UTC 2018-01-20T19:41:44Z
    FromStats_BitRate                        : 640000
    FromStats_Duration                       : 01:31:57.024000000
    FromStats_FrameCount                     : 172407
    FromStats_StreamSize                     : 441361920

    Audio #2
    ID                                       : 3
    Format                                   : DTS
    Format/Info                              : Digital Theater Systems
    Mode                                     : 16
    Format settings, Endianness              : Big
    Codec ID                                 : A_DTS
    Duration                                 : 1 h 31 min
    Bit rate mode                            : Constant
    Bit rate                                 : 1 509 kb/s
    Channel(s)                               : 6 channels
    Channel positions                        : Front: L C R, Side: L R, LFE
    Sampling rate                            : 48.0 kHz
    Frame rate                               : 93.750 FPS (512 SPF)
    Bit depth                                : 24 bits
    Compression mode                         : Lossy
    Stream size                              : 992 MiB (33%)
    Language                                 : English
    Default                                  : No
    Forced                                   : No
    Statistics Tags Issue                    : mkvmerge v15.0.0 ('Duel with the Devil') 64-bit 2018-01-20 22:36:05 / mkvmerge v15.0.0 ('Duel with the Devil') 64-bit 2018-01-20 22:36:05 / UTC 2018-01-20T19:41:44Z
    FromStats_BitRate                        : 1508999
    FromStats_Duration                       : 01:31:57.014000000
    FromStats_FrameCount                     : 517220
    FromStats_StreamSize                     : 1040646640

    Text #1
    ID                                       : 4
    Format                                   : PGS
    Muxing mode                              : zlib
    Codec ID                                 : S_HDMV/PGS
    Codec ID/Info                            : Picture based subtitle format used on BDs/HD-DVDs
    Title                                    : Forzdos
    Language                                 : Spanish
    Default                                  : Yes
    Forced                                   : Yes
    Statistics Tags Issue                    : mkvmerge v15.0.0 ('Duel with the Devil') 64-bit 2018-01-20 22:36:05 / mkvmerge v15.0.0 ('Duel with the Devil') 64-bit 2018-01-20 22:36:05 / UTC 2018-01-20T19:41:44Z
    FromStats_BitRate                        : 265
    FromStats_Duration                       : 00:24:34.265000000
    FromStats_FrameCount                     : 6
    FromStats_StreamSize                     : 48959

    Text #2
    ID                                       : 5
    Format                                   : PGS
    Muxing mode                              : zlib
    Codec ID                                 : S_HDMV/PGS
    Codec ID/Info                            : Picture based subtitle format used on BDs/HD-DVDs
    Language                                 : Spanish
    Default                                  : No
    Forced                                   : No
    Statistics Tags Issue                    : mkvmerge v15.0.0 ('Duel with the Devil') 64-bit 2018-01-20 22:36:05 / mkvmerge v15.0.0 ('Duel with the Devil') 64-bit 2018-01-20 22:36:05 / UTC 2018-01-20T19:41:44Z
    FromStats_BitRate                        : 35598
    FromStats_Duration                       : 01:24:07.083000000
    FromStats_FrameCount                     : 2047
    FromStats_StreamSize                     : 22458457

    Text #3
    ID                                       : 6
    Format                                   : PGS
    Muxing mode                              : zlib
    Codec ID                                 : S_HDMV/PGS
    Codec ID/Info                            : Picture based subtitle format used on BDs/HD-DVDs
    Language                                 : English
    Default                                  : No
    Forced                                   : No
    Statistics Tags Issue                    : mkvmerge v15.0.0 ('Duel with the Devil') 64-bit 2018-01-20 22:36:05 / mkvmerge v15.0.0 ('Duel with the Devil') 64-bit 2018-01-20 22:36:05 / UTC 2018-01-20T19:41:44Z
    FromStats_BitRate                        : 40949
    FromStats_Duration                       : 01:31:17.514000000
    FromStats_FrameCount                     : 2702
    FromStats_StreamSize                     : 28037670

    Menu
    00:00:00.000                             : :Chapter 1
    00:03:46.977                             : :Chapter 2
    00:10:39.848                             : :Chapter 3
    00:14:10.058                             : :Chapter 4
    00:22:39.733                             : :Chapter 5
    00:29:03.492                             : :Chapter 6
    00:35:18.658                             : :Chapter 7
    00:40:38.603                             : :Chapter 8
    00:43:09.212                             : :Chapter 9
    00:46:12.353                             : :Chapter 10
    00:52:00.743                             : :Chapter 11
    00:56:34.266                             : :Chapter 12
    01:04:13.850                             : :Chapter 13
    01:09:17.612                             : :Chapter 14
    01:13:33.284                             : :Chapter 15
    01:23:31.131                             : :Chapter 16

     

  • Peso: 2.96 GiB

Sinopsis

¿Estaremos más cerca de conocer el desenlace de los macabros planes ideados por Jigsaw? Octava entrega de una de las sagas más terroríficas de los últimos tiempos. El filme lo dirigen los hermanos Michael y Peter Spierig (Predestination, Los no muertos). Por su parte, los guionistas Josh Stolberg (Piraña 3D, Hermandad de sangre) y Peter Goldfinger (Hermandad de sangre, Eight Days a Week) firman el libreto de este proyecto que cuenta con el apoyo de los creadores del film original, James Wan (Expediente Warren: El caso Enfield, Insidious: Capítulo 2) y Leigh Whannell (Stem, Insidious: Capítulo 3), implicados como productores ejecutivos. Los actores protagonistas son Laura Vandervoort (Con Man, Supergirl) y Tobin Bell (The Flash, Manson Family Vacation), nuevamente en el escalofriante papel de John Kramer más conocido como Jigsaw.

Ficha técnica

Video trailer de la película

Enlaces de descarga

Rip de Bluray

Descargar Saw VIII (Jigsaw) (2017) Full 1080p Latino




Aportes de DPeliculasHDmega la pass es:dpeliculashdmega.org Aportes de CinemaniaHD la pass es:cinemaniahdd.com

Películas relacionadas

  • Yo vi al diablo (2010) 1080p Latino

    2010
    Yo vi al diablo (2010) 1080p Latino

    0.0 2 h 22 min 2010

    Kyung-chul es un psicópata peligroso que mata por placer y que ha cometido varios asesinatos con unos...

    Director: Kim Jee-woon

    Género: Suspense

    Actores: Yoon Chae-yeong

  • Los extraños Cacería nocturna (2018) Full 1080p Latino

    2018
    Los extraños Cacería nocturna (2018) Full 1080p Latino

    5.0 1 h 25 min 2018

    Una familia que viaje por carretera llega a un parque de caravanas donde esperan reunirse con unos parientes...

    Director: Johannes Roberts

    Género: FULL 1080p Plateadas

    Actores: Preston Sadleir

  • Super Troopers 2 (2018) Full 1080p Latino

    2018
    Super Troopers 2 (2018) Full 1080p Latino

    5.0 1 h 39 min 2018

    Regresa la unidad de ley y orden favorita del público. Cuando surge un problema fronterizo internacional...

    Director: Jay Chandrasekhar

    Género: Comedia

    Actores: Will Sasso

  • Isla de perros (2018) Full 1080p Latino

    2018
    Isla de perros (2018) Full 1080p Latino

    5.0 1 h 41 min 2018

    Después de que todas las mascotas caninas de Megasaki City sean exiliadas a una isla que es un vertedero,...

    Director: Wes Anderson

    Género: Animación

    Actores: Yoko Ono

  • Sexy por accidente (2018) Full 1080p Latino

    2018
    Sexy por accidente (2018) Full 1080p Latino

    5.0 1h 51m 2018

    Una chica corriente, que se enfrenta cada día a sus inseguridades, despierta de una caída creyendo...

    Director: Marc Silverstein

    Género: Comedia

    Actores: Yvette Williams

Comentarios 9
  • carlos - 23 febrero, 2018

    amigo esta pelicula esta en calidad de wel xq no esta en full hd xq espero tu respuesta

    • dpelis - 01 abril, 2018

      ah que te refieres?

  • slash - 28 enero, 2018

    Gracias, todo de lujo.

  • Tio Higuera - 24 enero, 2018

    Muy buena, Gracias.

  • cristian - 21 enero, 2018

    excelente aporte muchas gracias gran pagina una preguntica que paso con dragon ball super ???

    • dpelis - 21 enero, 2018

      no hay mas doblaje latino por eso no se siguio publicando

  • sancudito - 20 enero, 2018

    solo 2gb . ?

    • dpelis - 21 enero, 2018

      explicare, el bluray BD50 tiene una gran calidad, es la razon por eso que el ripeo pesa poco, pero manteniendo la calidad

  • Rxdrigx17 - 20 enero, 2018

    Muchas gracias por todos los aportes que nos brindan, descargaré la saga completa… Saludos!