Saw VIII (Jigsaw) (2017) 1080p Latino

2.280 vistas
1 estrella2 estrellas3 estrellas4 estrellas5 estrellas (Ninguna valoración todavía)
Cargando…

Información de Saw VIII (Jigsaw) (2017) 1080p Latino

Datos de la película

  • Calidad: 1080p
  • Audio: Español Latino AC3 5.1 DVD - Ingles AC3 5.1 BLURAY
  • Subtitulos: Español Latino SRT
  • Resolución: 1904X804p
  • Formato: MKV
  • Codec: H.264
  • Encoder: Dracarys
  • Mediainfo: Clic para Mostrar Datos Ver
  • Format                                   : Matroska
    Format version                           : Version 4 / Version 2
    File size                                : 2.83 GiB
    Duration                                 : 1 h 31 min
    Overall bit rate                         : 4 408 kb/s
    Movie name                               : CinemaniaHDD.com
    Encoded date                             : UTC 2018-01-16 06:54:57 / UTC 2018-01-16T06:21:42Z
    Writing application                      : mkvmerge v15.0.0 ('Duel with the Devil') 64-bit
    Writing library                          : libebml v1.3.5 + libmatroska v1.4.5 / Lavf57.7.2

    Video
    ID                                       : 1
    Format                                   : AVC
    Format/Info                              : Advanced Video Codec
    Format profile                           : High@L4.1
    Format settings                          : CABAC / 4 Ref Frames
    Format settings, CABAC                   : Yes
    Format settings, RefFrames               : 4 frames
    Codec ID                                 : V_MPEG4/ISO/AVC
    Duration                                 : 1 h 31 min
    Bit rate                                 : 3 232 kb/s
    Nominal bit rate                         : 3 500 kb/s
    Width                                    : 1 904 pixels
    Height                                   : 804 pixels
    Display aspect ratio                     : 2.35:1
    Frame rate mode                          : Constant
    Frame rate                               : 23.976 (24000/1001) FPS
    Color space                              : YUV
    Chroma subsampling                       : 4:2:0
    Bit depth                                : 8 bits
    Scan type                                : Progressive
    Bits/(Pixel*Frame)                       : 0.088
    Stream size                              : 2.08 GiB (73%)
    Title                                    : Saw VIII (Jigsaw) (2017) 1080p Latino
    Writing library                          : x264 core 148 r2708 86b7198
    Encoding settings                        : cabac=1 / ref=3 / deblock=1:0:0 / analyse=0x3:0x113 / me=hex / subme=7 / psy=1 / psy_rd=1.00:0.00 / mixed_ref=1 / me_range=16 / chroma_me=1 / trellis=1 / 8x8dct=1 / cqm=0 / deadzone=21,11 / fast_pskip=1 / chroma_qp_offset=-2 / threads=25 / lookahead_threads=4 / sliced_threads=0 / nr=0 / decimate=1 / interlaced=0 / bluray_compat=0 / constrained_intra=0 / bframes=3 / b_pyramid=2 / b_adapt=1 / b_bias=0 / direct=1 / weightb=1 / open_gop=0 / weightp=2 / keyint=240 / keyint_min=24 / scenecut=40 / intra_refresh=0 / rc_lookahead=40 / rc=abr / mbtree=1 / bitrate=3500 / ratetol=1.0 / qcomp=0.60 / qpmin=0 / qpmax=69 / qpstep=4 / vbv_maxrate=62500 / vbv_bufsize=78125 / nal_hrd=none / filler=0 / ip_ratio=1.40 / aq=1:1.00
    Language                                 : English
    Default                                  : Yes
    Forced                                   : No
    Color range                              : Limited
    Color primaries                          : BT.709
    Transfer characteristics                 : BT.709
    Matrix coefficients                      : BT.709
    Statistics Tags Issue                    : mkvmerge v15.0.0 ('Duel with the Devil') 64-bit 2018-01-16 06:54:57 / mkvmerge v15.0.0 ('Duel with the Devil') 64-bit 2018-01-16 06:54:57 / UTC 2018-01-16T06:21:42Z
    FromStats_BitRate                        : 3317714
    FromStats_Duration                       : 01:31:56.970000000
    FromStats_FrameCount                     : 132275
    FromStats_StreamSize                     : 2287966686

    Audio #1
    ID                                       : 2
    Format                                   : AC-3
    Format/Info                              : Audio Coding 3
    Format settings, Endianness              : Big
    Codec ID                                 : A_AC3
    Duration                                 : 1 h 31 min
    Bit rate mode                            : Constant
    Bit rate                                 : 448 kb/s
    Channel(s)                               : 6 channels
    Channel positions                        : Front: L C R, Side: L R, LFE
    Sampling rate                            : 48.0 kHz
    Frame rate                               : 31.250 FPS (1536 SPF)
    Bit depth                                : 16 bits
    Compression mode                         : Lossy
    Stream size                              : 295 MiB (10%)
    Language                                 : Spanish
    Service kind                             : Complete Main
    Default                                  : Yes
    Forced                                   : No
    Statistics Tags Issue                    : mkvmerge v15.0.0 ('Duel with the Devil') 64-bit 2018-01-16 06:54:57 / mkvmerge v15.0.0 ('Duel with the Devil') 64-bit 2018-01-16 06:54:57 / UTC 2018-01-16T06:21:42Z
    FromStats_BitRate                        : 448000
    FromStats_Duration                       : 01:31:56.864000000
    FromStats_FrameCount                     : 172402
    FromStats_StreamSize                     : 308944384

    Audio #2
    ID                                       : 3
    Format                                   : AC-3
    Format/Info                              : Audio Coding 3
    Format settings, Endianness              : Big
    Codec ID                                 : A_AC3
    Duration                                 : 1 h 31 min
    Bit rate mode                            : Constant
    Bit rate                                 : 640 kb/s
    Channel(s)                               : 6 channels
    Channel positions                        : Front: L C R, Side: L R, LFE
    Sampling rate                            : 48.0 kHz
    Frame rate                               : 31.250 FPS (1536 SPF)
    Bit depth                                : 16 bits
    Compression mode                         : Lossy
    Stream size                              : 421 MiB (15%)
    Language                                 : English
    Service kind                             : Complete Main
    Default                                  : No
    Forced                                   : No
    Statistics Tags Issue                    : mkvmerge v15.0.0 ('Duel with the Devil') 64-bit 2018-01-16 06:54:57 / mkvmerge v15.0.0 ('Duel with the Devil') 64-bit 2018-01-16 06:54:57 / UTC 2018-01-16T06:21:42Z
    FromStats_BitRate                        : 640000
    FromStats_Duration                       : 01:31:56.960000000
    FromStats_FrameCount                     : 172405
    FromStats_StreamSize                     : 441356800

    Text
    ID                                       : 4
    Format                                   : UTF-8
    Codec ID                                 : S_TEXT/UTF8
    Codec ID/Info                            : UTF-8 Plain Text
    Language                                 : Spanish
    Default                                  : No
    Forced                                   : No
    Statistics Tags Issue                    : mkvmerge v15.0.0 ('Duel with the Devil') 64-bit 2018-01-16 06:54:57 / mkvmerge v15.0.0 ('Duel with the Devil') 64-bit 2018-01-16 06:54:57 / UTC 2018-01-16T06:21:42Z
    FromStats_BitRate                        : 59
    FromStats_Duration                       : 01:25:08.667000000
    FromStats_FrameCount                     : 1244
    FromStats_StreamSize                     : 38088

    Menu
    00:00:00.000                             : :00:00:00.000
    00:03:46.977                             : :00:03:46.977
    00:10:39.848                             : :00:10:39.848
    00:14:10.058                             : :00:14:09.974
    00:22:39.608                             : :00:22:39.608
    00:29:03.408                             : :00:29:03.408
    00:35:18.533                             : :00:35:18.533
    00:40:38.519                             : :00:40:38.519
    00:43:09.212                             : :00:43:09.212
    00:46:12.353                             : :00:46:12.353
    00:52:00.743                             : :00:52:00.743
    00:56:34.224                             : :00:56:34.224
    01:04:13.850                             : :01:04:13.850
    01:09:17.570                             : :01:09:17.570
    01:13:33.284                             : :01:13:33.284
    01:23:31.089                             : :01:23:31.089

  • Peso: 2.83 GiB

Sinopsis

¿Estaremos más cerca de conocer el desenlace de los macabros planes ideados por Jigsaw? Octava entrega de una de las sagas más terroríficas de los últimos tiempos. El filme lo dirigen los hermanos Michael y Peter Spierig (Predestination, Los no muertos). Por su parte, los guionistas Josh Stolberg (Piraña 3D, Hermandad de sangre) y Peter Goldfinger (Hermandad de sangre, Eight Days a Week) firman el libreto de este proyecto que cuenta con el apoyo de los creadores del film original, James Wan (Expediente Warren: El caso Enfield, Insidious: Capítulo 2) y Leigh Whannell (Stem, Insidious: Capítulo 3), implicados como productores ejecutivos. Los actores protagonistas son Laura Vandervoort (Con Man, Supergirl) y Tobin Bell (The Flash, Manson Family Vacation), nuevamente en el escalofriante papel de John Kramer más conocido como Jigsaw.

Ficha técnica

Video trailer de la película

Enlaces de descarga

Rip de Bluray

Descargar Saw VIII (Jigsaw) (2017) 1080p Latino




Aportes de DPeliculasHDmega la pass es:dpeliculashdmega.org Aportes de CinemaniaHD la pass es:cinemaniahdd.com
Guardado en : Crimen , Misterio , Suspense , Terror

Películas relacionadas

  • The Night Comes For Us (2018) NF 1080p Latino

    2018
    The Night Comes For Us (2018) NF 1080p Latino

    1.0 2h 1m 2018

    The Night Comes For Us (2018) NF 1080p Latino; Mega, Google Drive. Un antiguo sicario debe proteger a...

    Director: Timo Tjahjanto

    Género: Acción

    Actores: Zack Lee

  • Illang: La brigada del lobo (2018) NF 1080p Latino

    2018
    Illang: La brigada del lobo (2018) NF 1080p Latino

    1.0 2h 19m 2018

    Descargar Illang: La brigada del lobo (2018) NF 1080p Latino; Mega, Google Drive. Basada en el anime...

    Director: Kim Jee-woon

    Género: Acción

    Actores: Shin Eun-soo

  • Mentes poderosas (2018) 1080p Latino

    2018
    Mentes poderosas (2018) 1080p Latino

    1.0 1h 45m 2018

    Descargar Mentes poderosas (2018) 1080p Latino; Mega, Google Drive. Encarcelados en un mundo adulto...

    Director: Jennifer Yuh Nelson

    Género: Ciencia ficción

    Actores: William Walker

  • Paciente Cero (2018) Full 1080p Latino

    2018
    Paciente Cero (2018) Full 1080p Latino

    3.7 1h 26m 2018

    Paciente Cero (2018) Full 1080p Latino; Mega, Google Drive. Tras una pandemia sin precedentes, la Humanidad...

    Director: Stefan Ruzowitzky

    Género: Acción

    Actores: Yumiko Hanasaka

Comentarios 4
  • jose - 17 enero, 2018

    hola me pide una contraseña al extraer los archivos me la pueden decir por favor

    • Dracarys - 29 enero, 2018

      dpeliculashdmega.org

  • JOHNSON2018 - 16 enero, 2018

    para cuando lo tendras en formato psg gracias..

    • dpelis - 16 enero, 2018

      en unos 3 dias