Samson (2018) Full 1080p Latino

1.231 vistas
1 estrella2 estrellas3 estrellas4 estrellas5 estrellas (6 votos, promedio: 4,67 de 5)
Cargando…

Información de Samson (2018) Full 1080p Latino

Datos de la película

  • Calidad: Full 1080p
  • Audio: Español Latino DTS 5.1 BLURAY - Ingles DTS 5.1 BLURAY
  • Subtitulos: Español Latino PGS - Ingles PGS
  • Resolución: 1920x1080p
  • Formato: MKV
  • Codec: H.264
  • Encoder: Dracarys
  • Mediainfo: Clic para Mostrar Datos Ver
  • Format                                   : Matroska
    Format version                           : Version 4 / Version 2
    File size                                : 5.47 GiB
    Duration                                 : 1 h 49 min
    Overall bit rate                         : 7 128 kb/s
    Movie name                               : CinemaniaHDD.com
    Encoded date                             : UTC 2018-05-09 17:35:51 / UTC 2018-05-09T00:19:54Z
    Writing application                      : mkvmerge v15.0.0 ('Duel with the Devil') 64-bit
    Writing library                          : libebml v1.3.5 + libmatroska v1.4.5 / Lavf57.7.2

    Video
    ID                                       : 1
    Format                                   : AVC
    Format/Info                              : Advanced Video Codec
    Format profile                           : High@L4.1
    Format settings                          : CABAC / 4 Ref Frames
    Format settings, CABAC                   : Yes
    Format settings, RefFrames               : 4 frames
    Codec ID                                 : V_MPEG4/ISO/AVC
    Duration                                 : 1 h 49 min
    Bit rate                                 : 3 968 kb/s
    Width                                    : 1 920 pixels
    Height                                   : 1 080 pixels
    Display aspect ratio                     : 16:9
    Frame rate mode                          : Constant
    Frame rate                               : 23.976 (24000/1001) FPS
    Color space                              : YUV
    Chroma subsampling                       : 4:2:0
    Bit depth                                : 8 bits
    Scan type                                : Progressive
    Bits/(Pixel*Frame)                       : 0.080
    Stream size                              : 3.04 GiB (56%)
    Title                                    : Samson (2018) Full 1080p Latino
    Writing library                          : x264 core 148 r2708 86b7198
    Encoding settings                        : cabac=1 / ref=4 / deblock=1:0:0 / analyse=0x3:0x133 / me=esa / subme=10 / psy=1 / psy_rd=1.00:0.00 / mixed_ref=1 / me_range=24 / chroma_me=1 / trellis=2 / 8x8dct=1 / cqm=0 / deadzone=21,11 / fast_pskip=1 / chroma_qp_offset=-2 / threads=34 / lookahead_threads=5 / sliced_threads=0 / nr=0 / decimate=1 / interlaced=0 / bluray_compat=0 / constrained_intra=0 / bframes=8 / b_pyramid=2 / b_adapt=2 / b_bias=0 / direct=3 / weightb=1 / open_gop=0 / weightp=2 / keyint=240 / keyint_min=24 / scenecut=40 / intra_refresh=0 / rc_lookahead=60 / rc=crf / mbtree=1 / crf=20.0 / qcomp=0.60 / qpmin=0 / qpmax=69 / qpstep=4 / vbv_maxrate=62500 / vbv_bufsize=78125 / crf_max=0.0 / nal_hrd=none / filler=0 / ip_ratio=1.40 / aq=1:1.00
    Language                                 : English
    Default                                  : Yes
    Forced                                   : No
    Color range                              : Limited
    Color primaries                          : BT.709
    Transfer characteristics                 : BT.709
    Matrix coefficients                      : BT.709
    Statistics Tags Issue                    : mkvmerge v15.0.0 ('Duel with the Devil') 64-bit 2018-05-09 17:35:51 / mkvmerge v15.0.0 ('Duel with the Devil') 64-bit 2018-05-09 17:35:51 / UTC 2018-05-09T00:19:54Z
    FromStats_BitRate                        : 4081222
    FromStats_Duration                       : 01:49:49.083000000
    FromStats_FrameCount                     : 157980
    FromStats_StreamSize                     : 3361438838

    Audio #1
    ID                                       : 2
    Format                                   : DTS
    Format/Info                              : Digital Theater Systems
    Mode                                     : 16
    Format settings, Endianness              : Big
    Codec ID                                 : A_DTS
    Duration                                 : 1 h 49 min
    Bit rate mode                            : Constant
    Bit rate                                 : 1 509 kb/s
    Channel(s)                               : 6 channels
    Channel positions                        : Front: L C R, Side: L R, LFE
    Sampling rate                            : 48.0 kHz
    Frame rate                               : 93.750 FPS (512 SPF)
    Bit depth                                : 24 bits
    Compression mode                         : Lossy
    Stream size                              : 1.16 GiB (21%)
    Language                                 : Spanish
    Default                                  : Yes
    Forced                                   : No
    Statistics Tags Issue                    : mkvmerge v15.0.0 ('Duel with the Devil') 64-bit 2018-05-09 17:35:51 / mkvmerge v15.0.0 ('Duel with the Devil') 64-bit 2018-05-09 17:35:51 / UTC 2018-05-09T00:19:54Z
    FromStats_BitRate                        : 1508999
    FromStats_Duration                       : 01:49:49.078000000
    FromStats_FrameCount                     : 617726
    FromStats_StreamSize                     : 1242864712

    Audio #2
    ID                                       : 3
    Format                                   : DTS
    Format/Info                              : Digital Theater Systems
    Mode                                     : 16
    Format settings, Endianness              : Big
    Codec ID                                 : A_DTS
    Duration                                 : 1 h 49 min
    Bit rate mode                            : Constant
    Bit rate                                 : 1 509 kb/s
    Channel(s)                               : 6 channels
    Channel positions                        : Front: L C R, Side: L R, LFE
    Sampling rate                            : 48.0 kHz
    Frame rate                               : 93.750 FPS (512 SPF)
    Bit depth                                : 24 bits
    Compression mode                         : Lossy
    Stream size                              : 1.16 GiB (21%)
    Language                                 : English
    Default                                  : No
    Forced                                   : No
    Statistics Tags Issue                    : mkvmerge v15.0.0 ('Duel with the Devil') 64-bit 2018-05-09 17:35:51 / mkvmerge v15.0.0 ('Duel with the Devil') 64-bit 2018-05-09 17:35:51 / UTC 2018-05-09T00:19:54Z
    FromStats_BitRate                        : 1508999
    FromStats_Duration                       : 01:49:49.078000000
    FromStats_FrameCount                     : 617726
    FromStats_StreamSize                     : 1242864712

    Text #1
    ID                                       : 4
    Format                                   : PGS
    Muxing mode                              : zlib
    Codec ID                                 : S_HDMV/PGS
    Codec ID/Info                            : Picture based subtitle format used on BDs/HD-DVDs
    Language                                 : Spanish
    Default                                  : No
    Forced                                   : No
    Statistics Tags Issue                    : mkvmerge v15.0.0 ('Duel with the Devil') 64-bit 2018-05-09 17:35:51 / mkvmerge v15.0.0 ('Duel with the Devil') 64-bit 2018-05-09 17:35:51 / UTC 2018-05-09T00:19:54Z
    FromStats_BitRate                        : 33029
    FromStats_Duration                       : 01:46:38.809000000
    FromStats_FrameCount                     : 2801
    FromStats_StreamSize                     : 26418674

    Text #2
    ID                                       : 5
    Format                                   : PGS
    Muxing mode                              : zlib
    Codec ID                                 : S_HDMV/PGS
    Codec ID/Info                            : Picture based subtitle format used on BDs/HD-DVDs
    Language                                 : English
    Default                                  : No
    Forced                                   : No
    Statistics Tags Issue                    : mkvmerge v15.0.0 ('Duel with the Devil') 64-bit 2018-05-09 17:35:51 / mkvmerge v15.0.0 ('Duel with the Devil') 64-bit 2018-05-09 17:35:51 / UTC 2018-05-09T00:19:54Z
    FromStats_BitRate                        : 39564
    FromStats_Duration                       : 01:48:59.033000000
    FromStats_FrameCount                     : 3664
    FromStats_StreamSize                     : 32338848

    Menu
    00:00:00.000                             : :Chapter 1
    00:06:41.735                             : :Chapter 2
    00:11:48.458                             : :Chapter 3
    00:18:16.554                             : :Chapter 4
    00:23:02.840                             : :Chapter 5
    00:27:37.865                             : :Chapter 6
    00:34:25.397                             : :Chapter 7
    00:39:57.645                             : :Chapter 8
    00:45:58.339                             : :Chapter 9
    00:50:00.164                             : :Chapter 10
    00:56:08.407                             : :Chapter 11
    00:59:57.552                             : :Chapter 12
    01:04:12.307                             : :Chapter 13
    01:07:47.772                             : :Chapter 14
    01:15:15.011                             : :Chapter 15
    01:19:27.930                             : :Chapter 16
    01:24:55.132                             : :Chapter 17
    01:30:47.734                             : :Chapter 18
    01:37:25.214                             : :Chapter 19
    01:44:22.673                             : :Chapter 20

  • Peso: 5.47 GiB

Sinopsis

Después de perder el amor de su vida, un joven hebreo con una fuerza sobrenatural defiende a su pueblo, sacrificando todo para vengar su amor, su pueblo y su Dios.

Ficha técnica

Video trailer de la película

Enlaces de descarga

Rip de Bluray

Descargar Samson (2018) Full 1080p Latino




Aportes de DPeliculasHDmega la pass es:dpeliculashdmega.org Aportes de CinemaniaHD la pass es:cinemaniahdd.com

Películas relacionadas

Comentarios 0