Samson (2018) 1080p Latino

1.599 vistas
1 estrella2 estrellas3 estrellas4 estrellas5 estrellas (2 votos, promedio: 5,00 de 5)
Cargando…

Información de Samson (2018) 1080p Latino

Datos de la película

  • Calidad: Full 1080p
  • Audio: Español Latino AC3 5.1 DVD - Ingles AC3 5.1 BLURAY
  • Subtitulos: Español Latino SRT
  • Resolución: 1920x816p
  • Formato: MKV
  • Codec: H.264
  • Encoder: CinemaniaHD
  • Mediainfo: Clic para Mostrar Datos Ver
  • Format                                   : Matroska
    Format version                           : Version 4 / Version 2
    File size                                : 3.37 GiB
    Duration                                 : 1 h 49 min
    Overall bit rate                         : 4 390 kb/s
    Movie name                               : CinemaniaHDD.com
    Encoded date                             : UTC 2018-05-03 18:43:15 / UTC 2018-05-03T12:11:34Z
    Writing application                      : mkvmerge v15.0.0 ('Duel with the Devil') 64-bit
    Writing library                          : libebml v1.3.5 + libmatroska v1.4.5 / Lavf57.7.2

    Video
    ID                                       : 1
    Format                                   : AVC
    Format/Info                              : Advanced Video Codec
    Format profile                           : High@L4.1
    Format settings                          : CABAC / 5 Ref Frames
    Format settings, CABAC                   : Yes
    Format settings, RefFrames               : 5 frames
    Codec ID                                 : V_MPEG4/ISO/AVC
    Duration                                 : 1 h 49 min
    Bit rate                                 : 3 500 kb/s
    Width                                    : 1 920 pixels
    Height                                   : 816 pixels
    Display aspect ratio                     : 2.35:1
    Frame rate mode                          : Constant
    Frame rate                               : 23.976 (24000/1001) FPS
    Color space                              : YUV
    Chroma subsampling                       : 4:2:0
    Bit depth                                : 8 bits
    Scan type                                : Progressive
    Bits/(Pixel*Frame)                       : 0.093
    Stream size                              : 2.61 GiB (78%)
    Title                                    : Samson (2018) 1080p Latino
    Writing library                          : x264 core 148 r2708 86b7198
    Encoding settings                        : cabac=1 / ref=5 / deblock=1:0:0 / analyse=0x3:0x113 / me=umh / subme=8 / psy=1 / psy_rd=1.00:0.00 / mixed_ref=1 / me_range=16 / chroma_me=1 / trellis=1 / 8x8dct=1 / cqm=0 / deadzone=21,11 / fast_pskip=1 / chroma_qp_offset=-2 / threads=25 / lookahead_threads=4 / sliced_threads=0 / nr=0 / decimate=1 / interlaced=0 / bluray_compat=0 / constrained_intra=0 / bframes=3 / b_pyramid=2 / b_adapt=2 / b_bias=0 / direct=3 / weightb=1 / open_gop=0 / weightp=2 / keyint=240 / keyint_min=24 / scenecut=40 / intra_refresh=0 / rc_lookahead=50 / rc=abr / mbtree=1 / bitrate=3500 / ratetol=1.0 / qcomp=0.60 / qpmin=0 / qpmax=69 / qpstep=4 / vbv_maxrate=62500 / vbv_bufsize=78125 / nal_hrd=none / filler=0 / ip_ratio=1.40 / aq=1:1.00
    Language                                 : English
    Default                                  : Yes
    Forced                                   : No
    Color range                              : Limited
    Color primaries                          : BT.709
    Transfer characteristics                 : BT.709
    Matrix coefficients                      : BT.709
    Statistics Tags Issue                    : mkvmerge v15.0.0 ('Duel with the Devil') 64-bit 2018-05-03 18:43:15 / mkvmerge v15.0.0 ('Duel with the Devil') 64-bit 2018-05-03 18:43:15 / UTC 2018-05-03T12:11:34Z
    FromStats_BitRate                        : 3491518
    FromStats_Duration                       : 01:49:49.041000000
    FromStats_FrameCount                     : 157979
    FromStats_StreamSize                     : 2875720183

    Audio #1
    ID                                       : 2
    Format                                   : AC-3
    Format/Info                              : Audio Coding 3
    Format settings, Endianness              : Big
    Codec ID                                 : A_AC3
    Duration                                 : 1 h 49 min
    Bit rate mode                            : Constant
    Bit rate                                 : 448 kb/s
    Channel(s)                               : 6 channels
    Channel positions                        : Front: L C R, Side: L R, LFE
    Sampling rate                            : 48.0 kHz
    Frame rate                               : 31.250 FPS (1536 SPF)
    Bit depth                                : 16 bits
    Compression mode                         : Lossy
    Delay relative to video                  : -5 ms
    Stream size                              : 352 MiB (10%)
    Language                                 : Spanish
    Service kind                             : Complete Main
    Default                                  : Yes
    Forced                                   : No
    Statistics Tags Issue                    : mkvmerge v15.0.0 ('Duel with the Devil') 64-bit 2018-05-03 18:43:15 / mkvmerge v15.0.0 ('Duel with the Devil') 64-bit 2018-05-03 18:43:15 / UTC 2018-05-03T12:11:34Z
    FromStats_BitRate                        : 448000
    FromStats_Duration                       : 01:49:49.056000000
    FromStats_FrameCount                     : 205908
    FromStats_StreamSize                     : 368987136

    Audio #2
    ID                                       : 3
    Format                                   : AC-3
    Format/Info                              : Audio Coding 3
    Format settings, Endianness              : Big
    Codec ID                                 : A_AC3
    Duration                                 : 1 h 49 min
    Bit rate mode                            : Constant
    Bit rate                                 : 448 kb/s
    Channel(s)                               : 6 channels
    Channel positions                        : Front: L C R, Side: L R, LFE
    Sampling rate                            : 48.0 kHz
    Frame rate                               : 31.250 FPS (1536 SPF)
    Bit depth                                : 16 bits
    Compression mode                         : Lossy
    Delay relative to video                  : -5 ms
    Stream size                              : 352 MiB (10%)
    Language                                 : English
    Service kind                             : Complete Main
    Default                                  : No
    Forced                                   : No
    Statistics Tags Issue                    : mkvmerge v15.0.0 ('Duel with the Devil') 64-bit 2018-05-03 18:43:15 / mkvmerge v15.0.0 ('Duel with the Devil') 64-bit 2018-05-03 18:43:15 / UTC 2018-05-03T12:11:34Z
    FromStats_BitRate                        : 448000
    FromStats_Duration                       : 01:49:49.056000000
    FromStats_FrameCount                     : 205908
    FromStats_StreamSize                     : 368987136

    Text
    ID                                       : 4
    Format                                   : UTF-8
    Codec ID                                 : S_TEXT/UTF8
    Codec ID/Info                            : UTF-8 Plain Text
    Language                                 : Spanish
    Default                                  : No
    Forced                                   : No
    Statistics Tags Issue                    : mkvmerge v15.0.0 ('Duel with the Devil') 64-bit 2018-05-03 18:43:15 / mkvmerge v15.0.0 ('Duel with the Devil') 64-bit 2018-05-03 18:43:15 / UTC 2018-05-03T12:11:34Z
    FromStats_BitRate                        : 48
    FromStats_Duration                       : 01:46:38.735000000
    FromStats_FrameCount                     : 1394
    FromStats_StreamSize                     : 38496

    Menu
    00:00:00.000                             : :00:00:00.000
    00:06:41.735                             : :00:06:41.735
    00:11:48.458                             : :00:11:48.458
    00:18:16.554                             : :00:18:16.554
    00:23:02.840                             : :00:23:02.840
    00:27:37.865                             : :00:27:37.865
    00:34:25.397                             : :00:34:25.397
    00:39:57.645                             : :00:39:57.645
    00:45:58.422                             : :00:45:58.339
    00:50:00.164                             : :00:50:00.164
    00:56:08.407                             : :00:56:08.407
    00:59:57.552                             : :00:59:57.552
    01:04:12.307                             : :01:04:12.307
    01:07:47.772                             : :01:07:47.772
    01:15:15.136                             : :01:15:15.010
    01:19:27.930                             : :01:19:27.930
    01:24:55.132                             : :01:24:55.132
    01:30:47.734                             : :01:30:47.734
    01:37:25.214                             : :01:37:25.214
    01:44:22.798                             : :01:44:22.673

  • Peso: 3.37 GiB

Sinopsis

Después de perder el amor de su vida, un joven hebreo con una fuerza sobrenatural defiende a su pueblo, sacrificando todo para vengar su amor, su pueblo y su Dios.

Ficha técnica

Video trailer de la película

Enlaces de descarga

Rip de Bluray

Descargar Samson (2018) 1080p Latino




Aportes de DPeliculasHDmega la pass es:dpeliculashdmega.org Aportes de CinemaniaHD la pass es:cinemaniahdd.com
Guardado en : Acción , Aventura , Drama

Películas relacionadas

Comentarios 0