Roma (2007) Segunda Temporada Full 1080p Latino

816 vistas
1 estrella2 estrellas3 estrellas4 estrellas5 estrellas (1 votos, promedio: 5,00 de 5)
Cargando…

Información de Roma (2007) Segunda Temporada Full 1080p Latino

Datos de la película

  • Calidad: Full 1080p
  • Audio: Español Latino DTS 2.0 BLURAY - Ingles DTS 5.1 BLURAY
  • Subtitulos: Español Latino PGS - Ingles PGS
  • Resolución: 1920x1080p
  • Formato: MKV
  • Codec: H.264
  • Encoder: Dracarys
  • Mediainfo: Clic para Mostrar Datos Ver
  • Format                                   : Matroska
    Format version                           : Version 4 / Version 2
    File size                                : 4.38 GiB
    Duration                                 : 59 min 1 s
    Overall bit rate                         : 10.6 Mb/s
    Movie name                               : CienamnaiHDD.net
    Encoded date                             : UTC 2018-09-13 18:23:40 / UTC 2018-09-11T22:30:52Z
    Writing application                      : mkvmerge v15.0.0 ('Duel with the Devil') 64-bit
    Writing library                          : libebml v1.3.5 + libmatroska v1.4.5 / Lavf57.7.2

    Video
    ID                                       : 1
    Format                                   : AVC
    Format/Info                              : Advanced Video Codec
    Format profile                           : High@L4.1
    Format settings                          : CABAC / 4 Ref Frames
    Format settings, CABAC                   : Yes
    Format settings, RefFrames               : 4 frames
    Codec ID                                 : V_MPEG4/ISO/AVC
    Duration                                 : 59 min 1 s
    Bit rate                                 : 8 129 kb/s
    Width                                    : 1 920 pixels
    Height                                   : 1 080 pixels
    Display aspect ratio                     : 16:9
    Frame rate mode                          : Constant
    Frame rate                               : 23.976 (24000/1001) FPS
    Color space                              : YUV
    Chroma subsampling                       : 4:2:0
    Bit depth                                : 8 bits
    Scan type                                : Progressive
    Bits/(Pixel*Frame)                       : 0.164
    Stream size                              : 3.35 GiB (77%)
    Writing library                          : x264 core 148 r2708 86b7198
    Encoding settings                        : cabac=1 / ref=4 / deblock=1:0:0 / analyse=0x3:0x133 / me=esa / subme=10 / psy=1 / psy_rd=1.00:0.00 / mixed_ref=1 / me_range=24 / chroma_me=1 / trellis=2 / 8x8dct=1 / cqm=0 / deadzone=21,11 / fast_pskip=1 / chroma_qp_offset=-2 / threads=34 / lookahead_threads=5 / sliced_threads=0 / nr=0 / decimate=1 / interlaced=0 / bluray_compat=0 / constrained_intra=0 / bframes=8 / b_pyramid=2 / b_adapt=2 / b_bias=0 / direct=3 / weightb=1 / open_gop=0 / weightp=2 / keyint=240 / keyint_min=24 / scenecut=40 / intra_refresh=0 / rc_lookahead=60 / rc=crf / mbtree=1 / crf=20.0 / qcomp=0.60 / qpmin=0 / qpmax=69 / qpstep=4 / vbv_maxrate=62500 / vbv_bufsize=78125 / crf_max=0.0 / nal_hrd=none / filler=0 / ip_ratio=1.40 / aq=1:1.00
    Language                                 : English
    Default                                  : Yes
    Forced                                   : No
    Color range                              : Limited
    Color primaries                          : BT.709
    Transfer characteristics                 : BT.709
    Matrix coefficients                      : BT.709
    Statistics Tags Issue                    : mkvmerge v15.0.0 ('Duel with the Devil') 64-bit 2018-09-13 18:23:40 / mkvmerge v15.0.0 ('Duel with the Devil') 64-bit 2018-09-13 18:23:40 / UTC 2018-09-11T22:30:52Z
    FromStats_BitRate                        : 8316152
    FromStats_Duration                       : 00:59:01.038000000
    FromStats_FrameCount                     : 84900
    FromStats_StreamSize                     : 3680976661

    Audio #1
    ID                                       : 2
    Format                                   : DTS
    Format/Info                              : Digital Theater Systems
    Mode                                     : 16
    Format settings, Endianness              : Big
    Codec ID                                 : A_DTS
    Duration                                 : 59 min 1 s
    Bit rate mode                            : Constant
    Bit rate                                 : 768 kb/s
    Channel(s)                               : 2 channels
    Channel positions                        : Front: L R
    Sampling rate                            : 48.0 kHz
    Frame rate                               : 93.750 FPS (512 SPF)
    Bit depth                                : 24 bits
    Compression mode                         : Lossy
    Stream size                              : 324 MiB (7%)
    Language                                 : Spanish
    Default                                  : Yes
    Forced                                   : No
    Statistics Tags Issue                    : mkvmerge v15.0.0 ('Duel with the Devil') 64-bit 2018-09-13 18:23:40 / mkvmerge v15.0.0 ('Duel with the Devil') 64-bit 2018-09-13 18:23:40 / UTC 2018-09-11T22:30:52Z
    FromStats_BitRate                        : 767999
    FromStats_Duration                       : 00:59:01.035000000
    FromStats_FrameCount                     : 331972
    FromStats_StreamSize                     : 339939328

    Audio #2
    ID                                       : 3
    Format                                   : DTS
    Format/Info                              : Digital Theater Systems
    Mode                                     : 16
    Format settings, Endianness              : Big
    Codec ID                                 : A_DTS
    Duration                                 : 59 min 1 s
    Bit rate mode                            : Constant
    Bit rate                                 : 1 509 kb/s
    Channel(s)                               : 6 channels
    Channel positions                        : Front: L C R, Side: L R, LFE
    Sampling rate                            : 48.0 kHz
    Frame rate                               : 93.750 FPS (512 SPF)
    Bit depth                                : 24 bits
    Compression mode                         : Lossy
    Stream size                              : 637 MiB (14%)
    Language                                 : English
    Default                                  : No
    Forced                                   : No
    Statistics Tags Issue                    : mkvmerge v15.0.0 ('Duel with the Devil') 64-bit 2018-09-13 18:23:40 / mkvmerge v15.0.0 ('Duel with the Devil') 64-bit 2018-09-13 18:23:40 / UTC 2018-09-11T22:30:52Z
    FromStats_BitRate                        : 1508999
    FromStats_Duration                       : 00:59:01.035000000
    FromStats_FrameCount                     : 331972
    FromStats_StreamSize                     : 667927664

    Text #1
    ID                                       : 4
    Format                                   : PGS
    Muxing mode                              : zlib
    Codec ID                                 : S_HDMV/PGS
    Codec ID/Info                            : Picture based subtitle format used on BDs/HD-DVDs
    Language                                 : English
    Default                                  : No
    Forced                                   : No
    Statistics Tags Issue                    : mkvmerge v15.0.0 ('Duel with the Devil') 64-bit 2018-09-13 18:23:40 / mkvmerge v15.0.0 ('Duel with the Devil') 64-bit 2018-09-13 18:23:40 / UTC 2018-09-11T22:30:52Z
    FromStats_BitRate                        : 39804
    FromStats_Duration                       : 00:54:18.505000000
    FromStats_FrameCount                     : 1405
    FromStats_StreamSize                     : 16212780

    Text #2
    ID                                       : 5
    Format                                   : PGS
    Muxing mode                              : zlib
    Codec ID                                 : S_HDMV/PGS
    Codec ID/Info                            : Picture based subtitle format used on BDs/HD-DVDs
    Language                                 : Spanish
    Default                                  : No
    Forced                                   : No
    Statistics Tags Issue                    : mkvmerge v15.0.0 ('Duel with the Devil') 64-bit 2018-09-13 18:23:40 / mkvmerge v15.0.0 ('Duel with the Devil') 64-bit 2018-09-13 18:23:40 / UTC 2018-09-11T22:30:52Z
    FromStats_BitRate                        : 38962
    FromStats_Duration                       : 00:55:30.786000000
    FromStats_FrameCount                     : 1412
    FromStats_StreamSize                     : 16222001

  • Peso: 4.50 GiB X Capitulo

Sinopsis

Cuatro siglos después de la fundación de la República (509 a.C.), Roma es la ciudad más poderosa del mundo, una metrópoli cosmopolita de un millón de personas, el epicentro de un imperio en expansión. La República se basó en la separación de poderes y creó los mecanismos necesarios para evitar que un solo hombre acumulara demasiado poder. Sin embargo, con el paso del tiempo, la corrupción, el lujo y los excesos fueron carcomiendo esos principios.

Ficha técnica

Video trailer de la película

Enlaces de descarga

Rip de Bluray

Descargar Roma (2007) Segunda Temporada Full 1080p Latino




Aportes de DPeliculasHDmega la pass es:dpeliculashdmega.org Aportes de CinemaniaHD la pass es:cinemaniahdd.com

Películas relacionadas

Comentarios 3
  • sabbath66 - 16 septiembre, 2018

    Grascias por esta muy buena serie y sobre todo por la calidad del ripeo (Me gusta mucho su trabajo).

  • José - 14 septiembre, 2018

    Son un grande entre los grandes muy agradecido estoy.

  • jorge - 14 septiembre, 2018

    gracias