Robbie Williams – Live at Knebworth (2003) Full 1080p Concierto

471 vistas
1 estrella2 estrellas3 estrellas4 estrellas5 estrellas (1 votos, promedio: 1,00 de 5)
Cargando…

Información de Robbie Williams – Live at Knebworth (2003) Full 1080p Concierto

Datos de la película

  • Calidad: Full 1080p
  • Audio: Ingles DTS 5.1 BLURAY
  • Subtitulos: Español PGS
  • Resolución: 1920x1080p
  • Formato: MKV
  • Codec: H.264
  • Encoder: Dracarys
  • Mediainfo: Clic para Mostrar Datos Ver
  • Format                                   : Matroska
    Format version                           : Version 4 / Version 2
    File size                                : 15.2 GiB
    Duration                                 : 1 h 48 min
    Overall bit rate                         : 20.0 Mb/s
    Movie name                               : CinemaniaHDD.net
    Encoded date                             : UTC 2018-08-29 22:49:42 / UTC 2018-08-22T04:08:16Z
    Writing application                      : mkvmerge v15.0.0 ('Duel with the Devil') 64-bit
    Writing library                          : libebml v1.3.5 + libmatroska v1.4.5 / Lavf57.7.2

    Video
    ID                                       : 1
    Format                                   : AVC
    Format/Info                              : Advanced Video Codec
    Format profile                           : High@L4.1
    Format settings                          : CABAC / 4 Ref Frames
    Format settings, CABAC                   : Yes
    Format settings, RefFrames               : 4 frames
    Codec ID                                 : V_MPEG4/ISO/AVC
    Duration                                 : 1 h 48 min
    Bit rate                                 : 18.1 Mb/s
    Width                                    : 1 920 pixels
    Height                                   : 1 080 pixels
    Display aspect ratio                     : 16:9
    Frame rate mode                          : Constant
    Frame rate                               : 29.970 (30000/1001) FPS
    Color space                              : YUV
    Chroma subsampling                       : 4:2:0
    Bit depth                                : 8 bits
    Scan type                                : Progressive
    Bits/(Pixel*Frame)                       : 0.291
    Stream size                              : 13.8 GiB (90%)
    Title                                    : Robbie Williams - Live at Knebworth (2003) Full 1080p Concierto
    Writing library                          : x264 core 148 r2708 86b7198
    Encoding settings                        : cabac=1 / ref=4 / deblock=1:0:0 / analyse=0x3:0x133 / me=esa / subme=10 / psy=1 / psy_rd=1.00:0.00 / mixed_ref=1 / me_range=24 / chroma_me=1 / trellis=2 / 8x8dct=1 / cqm=0 / deadzone=21,11 / fast_pskip=1 / chroma_qp_offset=-2 / threads=34 / lookahead_threads=5 / sliced_threads=0 / nr=0 / decimate=1 / interlaced=0 / bluray_compat=0 / constrained_intra=0 / bframes=8 / b_pyramid=2 / b_adapt=2 / b_bias=0 / direct=3 / weightb=1 / open_gop=0 / weightp=2 / keyint=300 / keyint_min=30 / scenecut=40 / intra_refresh=0 / rc_lookahead=60 / rc=crf / mbtree=1 / crf=20.0 / qcomp=0.60 / qpmin=0 / qpmax=69 / qpstep=4 / vbv_maxrate=62500 / vbv_bufsize=78125 / crf_max=0.0 / nal_hrd=none / filler=0 / ip_ratio=1.40 / aq=1:1.00
    Language                                 : English
    Default                                  : Yes
    Forced                                   : No
    Color range                              : Limited
    Color primaries                          : BT.709
    Transfer characteristics                 : BT.709
    Matrix coefficients                      : BT.709
    Statistics Tags Issue                    : mkvmerge v15.0.0 ('Duel with the Devil') 64-bit 2018-08-29 22:49:42 / mkvmerge v15.0.0 ('Duel with the Devil') 64-bit 2018-08-29 22:49:42 / UTC 2018-08-22T04:08:16Z
    FromStats_BitRate                        : 18489271
    FromStats_Duration                       : 01:48:56.830000000
    FromStats_FrameCount                     : 195909
    FromStats_StreamSize                     : 15107653152

    Audio
    ID                                       : 2
    Format                                   : DTS
    Format/Info                              : Digital Theater Systems
    Mode                                     : 16
    Format settings, Endianness              : Big
    Codec ID                                 : A_DTS
    Duration                                 : 1 h 48 min
    Bit rate mode                            : Constant
    Bit rate                                 : 1 509 kb/s
    Channel(s)                               : 6 channels
    Channel positions                        : Front: L C R, Side: L R, LFE
    Sampling rate                            : 48.0 kHz
    Frame rate                               : 93.750 FPS (512 SPF)
    Bit depth                                : 24 bits
    Compression mode                         : Lossy
    Stream size                              : 1.15 GiB (8%)
    Language                                 : English
    Default                                  : Yes
    Forced                                   : No
    Statistics Tags Issue                    : mkvmerge v15.0.0 ('Duel with the Devil') 64-bit 2018-08-29 22:49:42 / mkvmerge v15.0.0 ('Duel with the Devil') 64-bit 2018-08-29 22:49:42 / UTC 2018-08-22T04:08:16Z
    FromStats_BitRate                        : 1508999
    FromStats_Duration                       : 01:48:56.822000000
    FromStats_FrameCount                     : 612827
    FromStats_StreamSize                     : 1233007924

    Text #1
    ID                                       : 3
    Format                                   : PGS
    Muxing mode                              : zlib
    Codec ID                                 : S_HDMV/PGS
    Codec ID/Info                            : Picture based subtitle format used on BDs/HD-DVDs
    Language                                 : English
    Default                                  : No
    Forced                                   : No
    Statistics Tags Issue                    : mkvmerge v15.0.0 ('Duel with the Devil') 64-bit 2018-08-29 22:49:42 / mkvmerge v15.0.0 ('Duel with the Devil') 64-bit 2018-08-29 22:49:42 / UTC 2018-08-22T04:08:16Z
    FromStats_BitRate                        : 6297
    FromStats_Duration                       : 01:46:51.939000000
    FromStats_FrameCount                     : 580
    FromStats_StreamSize                     : 5047100

    Text #2
    ID                                       : 4
    Format                                   : PGS
    Muxing mode                              : zlib
    Codec ID                                 : S_HDMV/PGS
    Codec ID/Info                            : Picture based subtitle format used on BDs/HD-DVDs
    Language                                 : Spanish
    Default                                  : Yes
    Forced                                   : Yes
    Statistics Tags Issue                    : mkvmerge v15.0.0 ('Duel with the Devil') 64-bit 2018-08-29 22:49:42 / mkvmerge v15.0.0 ('Duel with the Devil') 64-bit 2018-08-29 22:49:42 / UTC 2018-08-22T04:08:16Z
    FromStats_BitRate                        : 6220
    FromStats_Duration                       : 01:48:54.261000000
    FromStats_FrameCount                     : 600
    FromStats_StreamSize                     : 5080860

    Menu
    00:00:00.000                             : :Chapter 1
    00:01:28.989                             : :Chapter 2
    00:07:08.461                             : :Chapter 3
    00:12:23.710                             : :Chapter 4
    00:13:40.219                             : :Chapter 5
    00:19:56.228                             : :Chapter 6
    00:26:44.603                             : :Chapter 7
    00:32:35.854                             : :Chapter 8
    00:40:29.761                             : :Chapter 9
    00:44:58.262                             : :Chapter 10
    00:53:35.846                             : :Chapter 11
    00:58:14.124                             : :Chapter 12
    01:02:54.170                             : :Chapter 13
    01:10:54.383                             : :Chapter 14
    01:19:26.028                             : :Chapter 15
    01:22:28.944                             : :Chapter 16
    01:28:58.533                             : :Chapter 17
    01:35:31.759                             : :Chapter 18
    01:42:33.180                             : :Chapter 19

  • Peso: 15.2 GiB

Sinopsis

Live at Knebworth, también conocido como Live Summer 2003 con texto de portada diferente, es un álbum en vivo del cantante pop inglés Robbie Williams, grabado y lanzado en 2003. El álbum es su primer álbum en vivo, y es una compilación de canciones realizadas durante tres consecutivos muestra en Knebworth, Inglaterra. Los tres espectáculos atrajeron a un total de 375,000 admiradores. Se convirtió en el álbum en vivo más rápido y más vendido del Reino Unido. Ha sido certificado 3x Platinum por la IFPI para envíos de más de 3 millones de copias, en total, el álbum ha vendido más de 3.5 millones de copias en todo el mundo.

Ficha técnica

  • Titulo original: Robbie Williams: What We Did Last Summer - Live at Knebworth
  • Fecha de lanzamiento: 29-09-2003
  • Director: Hamish Hamilton
  • Género: FULL 1080p Plateadas, Música
  • Puntuación: 1.0 1 votos
  • Duración:
    1h 40m

Video trailer de la película

Enlaces de descarga

Rip de Bluray

Descargar Robbie Williams – Live at Knebworth (2003) Full 1080p Concierto




Aportes de DPeliculasHDmega la pass es:dpeliculashdmega.org Aportes de CinemaniaHD la pass es:cinemaniahdd.com
Guardado en : FULL 1080p Plateadas , Música

Películas relacionadas

  • Mary Poppins (1964) Full 1080p Latino

    1964
    Mary Poppins (1964) Full 1080p Latino

    5.0 2h 19m 1964

    Reinado de Eduardo VII (1901-1910). Una familia inglesa formada por un padre banquero, una madre sufraguista...

    Director: Robert Stevenson

    Género: Comedia

    Actores: Reta Shaw

  • Siberia (2018) Full 1080p Subtitulado

    2018
    Siberia (2018) Full 1080p Subtitulado

    0.0 1h 44m 2018

    Cuando el socio ruso de un tratante de diamantes norteamericano (Keanu Reaves) desaparece, éste viaja...

    Director: Matthew Ross

    Género: Crimen

    Actores: Vladimir Shklyar

  • Los elegidos de la gloria (1983) Full 1080p Latino

    1983
    Los elegidos de la gloria (1983) Full 1080p Latino

    5.0 3 h 12 min 1983

    El libro de Tom Wolfe sobre la historia del programa espacial de los Estados Unidos, se lee como si fuera...

    Director: Philip Kaufman

    Género: Drama

    Actores: William Russ

Comentarios 0