Ready Player One comienza el juego (2018) Full 1080p Latino

5.154 vistas
1 estrella2 estrellas3 estrellas4 estrellas5 estrellas (14 votos, promedio: 3,79 de 5)
Cargando…

Información de Ready Player One comienza el juego (2018) Full 1080p Latino

Datos de la película

  • Calidad: Full 1080p
  • Audio: Español Latino AC3 5.1 BLURAY - Ingles DTS 5.1 BLURAY
  • Subtitulos: Español Latino PGS - Ingles PGS
  • Resolución: 1920x1080p
  • Formato: MKV
  • Codec: H.264
  • Encoder: Dracarys
  • Mediainfo: Clic para Mostrar Datos Ver
  • Format                                   : Matroska
    Format version                           : Version 4 / Version 2
    File size                                : 9.79 GiB
    Duration                                 : 2 h 19 min
    Overall bit rate                         : 10.0 Mb/s
    Movie name                               : CinemaniaHDD.net
    Encoded date                             : UTC 2018-07-05 18:28:57 / UTC 2018-07-05T05:50:07Z
    Writing application                      : mkvmerge v15.0.0 ('Duel with the Devil') 64-bit
    Writing library                          : libebml v1.3.5 + libmatroska v1.4.5 / Lavf57.7.2

    Video
    ID                                       : 1
    Format                                   : AVC
    Format/Info                              : Advanced Video Codec
    Format profile                           : High@L4.1
    Format settings                          : CABAC / 4 Ref Frames
    Format settings, CABAC                   : Yes
    Format settings, RefFrames               : 4 frames
    Codec ID                                 : V_MPEG4/ISO/AVC
    Duration                                 : 2 h 19 min
    Bit rate                                 : 7 921 kb/s
    Width                                    : 1 920 pixels
    Height                                   : 1 080 pixels
    Display aspect ratio                     : 16:9
    Frame rate mode                          : Constant
    Frame rate                               : 23.976 (24000/1001) FPS
    Color space                              : YUV
    Chroma subsampling                       : 4:2:0
    Bit depth                                : 8 bits
    Scan type                                : Progressive
    Bits/(Pixel*Frame)                       : 0.159
    Stream size                              : 7.74 GiB (79%)
    Title                                    : Ready Player One comienza el juego (2018) Full 1080p Latino
    Writing library                          : x264 core 148 r2708 86b7198
    Encoding settings                        : cabac=1 / ref=4 / deblock=1:0:0 / analyse=0x3:0x133 / me=esa / subme=9 / psy=1 / psy_rd=1.00:0.00 / mixed_ref=1 / me_range=16 / chroma_me=1 / trellis=2 / 8x8dct=1 / cqm=0 / deadzone=21,11 / fast_pskip=1 / chroma_qp_offset=-2 / threads=34 / lookahead_threads=2 / sliced_threads=0 / nr=0 / decimate=1 / interlaced=0 / bluray_compat=0 / constrained_intra=0 / bframes=3 / b_pyramid=2 / b_adapt=2 / b_bias=0 / direct=3 / weightb=1 / open_gop=0 / weightp=2 / keyint=240 / keyint_min=24 / scenecut=40 / intra_refresh=0 / rc_lookahead=60 / rc=crf / mbtree=1 / crf=20.0 / qcomp=0.60 / qpmin=0 / qpmax=69 / qpstep=4 / vbv_maxrate=62500 / vbv_bufsize=78125 / crf_max=0.0 / nal_hrd=none / filler=0 / ip_ratio=1.40 / aq=1:1.00
    Language                                 : English
    Default                                  : Yes
    Forced                                   : No
    Color range                              : Limited
    Color primaries                          : BT.709
    Transfer characteristics                 : BT.709
    Matrix coefficients                      : BT.709
    Statistics Tags Issue                    : mkvmerge v15.0.0 ('Duel with the Devil') 64-bit 2018-07-05 18:28:57 / mkvmerge v15.0.0 ('Duel with the Devil') 64-bit 2018-07-05 18:28:57 / UTC 2018-07-05T05:50:07Z
    FromStats_BitRate                        : 8096805
    FromStats_Duration                       : 02:19:58.265000000
    FromStats_FrameCount                     : 201357
    FromStats_StreamSize                     : 8499890092

    Audio #1
    ID                                       : 2
    Format                                   : AC-3
    Format/Info                              : Audio Coding 3
    Format settings, Endianness              : Big
    Codec ID                                 : A_AC3
    Duration                                 : 2 h 19 min
    Bit rate mode                            : Constant
    Bit rate                                 : 384 kb/s
    Channel(s)                               : 6 channels
    Channel positions                        : Front: L C R, Side: L R, LFE
    Sampling rate                            : 48.0 kHz
    Frame rate                               : 31.250 FPS (1536 SPF)
    Bit depth                                : 16 bits
    Compression mode                         : Lossy
    Stream size                              : 384 MiB (4%)
    Language                                 : Spanish
    Service kind                             : Complete Main
    Default                                  : Yes
    Forced                                   : No
    Statistics Tags Issue                    : mkvmerge v15.0.0 ('Duel with the Devil') 64-bit 2018-07-05 18:28:57 / mkvmerge v15.0.0 ('Duel with the Devil') 64-bit 2018-07-05 18:28:57 / UTC 2018-07-05T05:50:07Z
    FromStats_BitRate                        : 384000
    FromStats_Duration                       : 02:19:56.192000000
    FromStats_FrameCount                     : 262381
    FromStats_StreamSize                     : 403017216

    Audio #2
    ID                                       : 3
    Format                                   : DTS
    Format/Info                              : Digital Theater Systems
    Mode                                     : 16
    Format settings, Endianness              : Big
    Codec ID                                 : A_DTS
    Duration                                 : 2 h 19 min
    Bit rate mode                            : Constant
    Bit rate                                 : 1 509 kb/s
    Channel(s)                               : 6 channels
    Channel positions                        : Front: L C R, Side: L R, LFE
    Sampling rate                            : 48.0 kHz
    Frame rate                               : 93.750 FPS (512 SPF)
    Bit depth                                : 24 bits
    Compression mode                         : Lossy
    Stream size                              : 1.48 GiB (15%)
    Language                                 : English
    Default                                  : No
    Forced                                   : No
    Statistics Tags Issue                    : mkvmerge v15.0.0 ('Duel with the Devil') 64-bit 2018-07-05 18:28:57 / mkvmerge v15.0.0 ('Duel with the Devil') 64-bit 2018-07-05 18:28:57 / UTC 2018-07-05T05:50:07Z
    FromStats_BitRate                        : 1509000
    FromStats_Duration                       : 02:19:58.272000000
    FromStats_FrameCount                     : 787338
    FromStats_StreamSize                     : 1584124056

    Text #1
    ID                                       : 4
    Format                                   : UTF-8
    Codec ID                                 : S_TEXT/UTF8
    Codec ID/Info                            : UTF-8 Plain Text
    Title                                    : Forzados
    Language                                 : Spanish
    Default                                  : Yes
    Forced                                   : Yes
    Statistics Tags Issue                    : mkvmerge v15.0.0 ('Duel with the Devil') 64-bit 2018-07-05 18:28:57 / mkvmerge v15.0.0 ('Duel with the Devil') 64-bit 2018-07-05 18:28:57 / UTC 2018-07-05T05:50:07Z
    FromStats_BitRate                        : 1
    FromStats_Duration                       : 02:10:46.280000000
    FromStats_FrameCount                     : 57
    FromStats_StreamSize                     : 1546

    Text #2
    ID                                       : 5
    Format                                   : PGS
    Muxing mode                              : zlib
    Codec ID                                 : S_HDMV/PGS
    Codec ID/Info                            : Picture based subtitle format used on BDs/HD-DVDs
    Language                                 : English
    Default                                  : No
    Forced                                   : No
    Statistics Tags Issue                    : mkvmerge v15.0.0 ('Duel with the Devil') 64-bit 2018-07-05 18:28:57 / mkvmerge v15.0.0 ('Duel with the Devil') 64-bit 2018-07-05 18:28:57 / UTC 2018-07-05T05:50:07Z
    FromStats_BitRate                        : 36277
    FromStats_Duration                       : 02:18:59.748000000
    FromStats_FrameCount                     : 3682
    FromStats_StreamSize                     : 37817845

    Text #3
    ID                                       : 6
    Format                                   : PGS
    Muxing mode                              : zlib
    Codec ID                                 : S_HDMV/PGS
    Codec ID/Info                            : Picture based subtitle format used on BDs/HD-DVDs
    Language                                 : Spanish
    Default                                  : No
    Forced                                   : No
    Statistics Tags Issue                    : mkvmerge v15.0.0 ('Duel with the Devil') 64-bit 2018-07-05 18:28:57 / mkvmerge v15.0.0 ('Duel with the Devil') 64-bit 2018-07-05 18:28:57 / UTC 2018-07-05T05:50:07Z
    FromStats_BitRate                        : 31805
    FromStats_Duration                       : 02:18:56.870000000
    FromStats_FrameCount                     : 3210
    FromStats_StreamSize                     : 33144505

    Menu
    00:00:00.000                             : :Chapter 1
    00:10:08.233                             : :Chapter 2
    00:20:18.259                             : :Chapter 3
    00:30:37.627                             : :Chapter 4
    00:40:38.269                             : :Chapter 5
    00:50:08.964                             : :Chapter 6
    01:03:01.778                             : :Chapter 7
    01:11:55.269                             : :Chapter 8
    01:20:14.768                             : :Chapter 9
    01:30:58.328                             : :Chapter 10
    01:43:26.742                             : :Chapter 11
    01:53:02.150                             : :Chapter 12
    02:04:20.161                             : :Chapter 13
    02:09:17.250                             : :Chapter 14

  • Peso: 9.79 GiB

Sinopsis

Año 2044. Wade Watts es un adolescente al que le gusta evadirse del cada vez más sombrío mundo real a través de una popular utopía virtual a escala global llamada Oasis, hasta que su excéntrico y multimillonario creador muere. Antes de morir, ofrece su fortuna como premio a una elaborada búsqueda del tesoro a través de los rincones más inhóspitos de su creación. Será el punto de partida para que Wade se enfrente a jugadores, poderosos enemigos corporativos y otros competidores despiadados dispuestos a hacer lo que sea, tanto dentro de Oasis como del mundo real, para hacerse con el premio.

Ficha técnica

Video trailer de la película

Enlaces de descarga

Rip de Bluray

Descargar Ready Player One comienza el juego (2018) Full 1080p Latino




Aportes de DPeliculasHDmega la pass es:dpeliculashdmega.org Aportes de CinemaniaHD la pass es:cinemaniahdd.com

Películas relacionadas

  • Ready Player One (2018) 3D OU Full 1080p Latino

    2018
    Ready Player One (2018) 3D OU Full 1080p Latino

    5.0 2h 20m 2018

    Un futuro distópico. En concreto es el año 2045. Mientras las grandes multinacionales se reparten las...

    Director: Steven Spielberg

    Género: 3D Half OU

    Actores: Win Morisaki

  • Proyecto Rampage (2018) 3D OU Full 1080p Latino

    2018
    Proyecto Rampage (2018) 3D OU Full 1080p Latino

    0.0 1h 47m 2018

    Davis Okoye (Dwayne Johnson) es un especialista en primates de reconocido prestigio que mantiene un vínculo...

    Director: Shane B. Scott

    Género: 3D Half OU

    Actores: Will Yun Lee

  • Super Troopers 2 (2018) Full 1080p Latino

    2018
    Super Troopers 2 (2018) Full 1080p Latino

    0.0 1 h 39 min 2018

    Regresa la unidad de ley y orden favorita del público. Cuando surge un problema fronterizo internacional...

    Director: Jay Chandrasekhar

    Género: Comedia

    Actores: Will Sasso

  • Isla de perros (2018) Full 1080p Latino

    2018
    Isla de perros (2018) Full 1080p Latino

    5.0 1 h 41 min 2018

    Después de que todas las mascotas caninas de Megasaki City sean exiliadas a una isla que es un vertedero,...

    Director: Wes Anderson

    Género: Animación

    Actores: Yoko Ono

  • Sexy por accidente (2018) Full 1080p Latino

    2018
    Sexy por accidente (2018) Full 1080p Latino

    5.0 1h 51m 2018

    Una chica corriente, que se enfrenta cada día a sus inseguridades, despierta de una caída creyendo...

    Director: Marc Silverstein

    Género: Comedia

    Actores: Yvette Williams

Comentarios 11
  • Luis - 11 julio, 2018

    Descargué la pelicula sin problemas, pero al momento de descomprimirla la contraseña me marca incorrecta, usé las 2 que salen como opción pero no aceptó ninguna, AYUDA PORFAVOR!!!!

    • Dracarys - 11 julio, 2018

      escribela no la copies

  • cristian - 10 julio, 2018

    muchas gracias pero el audio latino casi no se escucha a comparacion de las demás peliculas que se escucha bn este esta muy bajito

    • Dracarys - 11 julio, 2018

      es audio de bluray sin modificaciones

  • Roro - 10 julio, 2018

    Gracias, esperando en 4k

  • Jose - 08 julio, 2018

    Por favor, mas peliculas con ese bitrate! 😀

  • Roro - 07 julio, 2018

    Gracias por la película ❤️, cuando sale en 4k? Y la de Pacific Rim 2 4k?

  • Roi - 07 julio, 2018

    Gracias por el arpote. ¿Qué subtitulos le quedan a esta versión?

    • Dracarys - 11 julio, 2018

      cualquier que sean bluray

  • ocpgaiden - 05 julio, 2018

    Si eres gamer esta es tu pelicula, gracias-saludos

  • Kevin - 05 julio, 2018

    Excelente aporte Dracarys. La estaba esperando. Bajando todo perfecto por GD. Gracias y saludos!!