Rascacielos: rescate en las alturas (2018) 1080p Latino

3.330 vistas
1 estrella2 estrellas3 estrellas4 estrellas5 estrellas (3 votos, promedio: 3,67 de 5)
Cargando…

Información de Rascacielos: rescate en las alturas (2018) 1080p Latino

Datos de la película

  • Calidad: 1080p
  • Audio: Español Latino AC3 5.1 DVD - Ingles AC3 5.1 BLURAY
  • Subtitulos: Español Latino SRT- FORZADOS SRT
  • Resolución: 1920x800p
  • Formato: MKV
  • Codec: H.264
  • Encoder: Dracarys
  • Mediainfo: Clic para Mostrar Datos Ver
  • Format                                   : Matroska
    Format version                           : Version 4 / Version 2
    File size                                : 3.17 GiB
    Duration                                 : 1 h 42 min
    Overall bit rate                         : 4 438 kb/s
    Movie name                               : CinemaniaHDD.net
    Encoded date                             : UTC 2018-09-28 00:22:59 / UTC 2018-09-27T21:43:25Z
    Writing application                      : mkvmerge v15.0.0 ('Duel with the Devil') 64-bit
    Writing library                          : libebml v1.3.5 + libmatroska v1.4.5 / Lavf57.7.2

    Video
    ID                                       : 1
    Format                                   : AVC
    Format/Info                              : Advanced Video Codec
    Format profile                           : High@L4.1
    Format settings                          : CABAC / 5 Ref Frames
    Format settings, CABAC                   : Yes
    Format settings, RefFrames               : 5 frames
    Codec ID                                 : V_MPEG4/ISO/AVC
    Duration                                 : 1 h 42 min
    Bit rate                                 : 3 326 kb/s
    Nominal bit rate                         : 3 500 kb/s
    Width                                    : 1 920 pixels
    Height                                   : 800 pixels
    Display aspect ratio                     : 2.40:1
    Frame rate mode                          : Constant
    Frame rate                               : 23.976 (24000/1001) FPS
    Color space                              : YUV
    Chroma subsampling                       : 4:2:0
    Bit depth                                : 8 bits
    Scan type                                : Progressive
    Bits/(Pixel*Frame)                       : 0.090
    Stream size                              : 2.38 GiB (75%)
    Writing library                          : x264 core 148 r2708 86b7198
    Encoding settings                        : cabac=1 / ref=5 / deblock=1:0:0 / analyse=0x3:0x113 / me=umh / subme=8 / psy=1 / psy_rd=1.00:0.00 / mixed_ref=1 / me_range=16 / chroma_me=1 / trellis=1 / 8x8dct=1 / cqm=0 / deadzone=21,11 / fast_pskip=1 / chroma_qp_offset=-2 / threads=25 / lookahead_threads=4 / sliced_threads=0 / nr=0 / decimate=1 / interlaced=0 / bluray_compat=0 / constrained_intra=0 / bframes=3 / b_pyramid=2 / b_adapt=2 / b_bias=0 / direct=3 / weightb=1 / open_gop=0 / weightp=2 / keyint=240 / keyint_min=24 / scenecut=40 / intra_refresh=0 / rc_lookahead=50 / rc=abr / mbtree=1 / bitrate=3500 / ratetol=1.0 / qcomp=0.60 / qpmin=0 / qpmax=69 / qpstep=4 / vbv_maxrate=62500 / vbv_bufsize=78125 / nal_hrd=none / filler=0 / ip_ratio=1.40 / aq=1:1.00
    Language                                 : English
    Default                                  : Yes
    Forced                                   : No
    Color range                              : Limited
    Color primaries                          : BT.709
    Transfer characteristics                 : BT.709
    Matrix coefficients                      : BT.709
    Statistics Tags Issue                    : mkvmerge v15.0.0 ('Duel with the Devil') 64-bit 2018-09-28 00:22:59 / mkvmerge v15.0.0 ('Duel with the Devil') 64-bit 2018-09-28 00:22:59 / UTC 2018-09-27T21:43:25Z
    FromStats_BitRate                        : 3412215
    FromStats_Duration                       : 01:42:24.138000000
    FromStats_FrameCount                     : 147312
    FromStats_StreamSize                     : 2620640430

    Audio #1
    ID                                       : 2
    Format                                   : AC-3
    Format/Info                              : Audio Coding 3
    Format settings, Endianness              : Big
    Codec ID                                 : A_AC3
    Duration                                 : 1 h 42 min
    Bit rate mode                            : Constant
    Bit rate                                 : 384 kb/s
    Channel(s)                               : 6 channels
    Channel positions                        : Front: L C R, Side: L R, LFE
    Sampling rate                            : 48.0 kHz
    Frame rate                               : 31.250 FPS (1536 SPF)
    Bit depth                                : 16 bits
    Compression mode                         : Lossy
    Stream size                              : 281 MiB (9%)
    Language                                 : Spanish
    Service kind                             : Complete Main
    Default                                  : Yes
    Forced                                   : No
    Statistics Tags Issue                    : mkvmerge v15.0.0 ('Duel with the Devil') 64-bit 2018-09-28 00:22:59 / mkvmerge v15.0.0 ('Duel with the Devil') 64-bit 2018-09-28 00:22:59 / UTC 2018-09-27T21:43:25Z
    FromStats_BitRate                        : 384000
    FromStats_Duration                       : 01:42:24.096000000
    FromStats_FrameCount                     : 192003
    FromStats_StreamSize                     : 294916608

    Audio #2
    ID                                       : 3
    Format                                   : AC-3
    Format/Info                              : Audio Coding 3
    Format settings, Endianness              : Big
    Codec ID                                 : A_AC3
    Duration                                 : 1 h 42 min
    Bit rate mode                            : Constant
    Bit rate                                 : 640 kb/s
    Channel(s)                               : 6 channels
    Channel positions                        : Front: L C R, Side: L R, LFE
    Sampling rate                            : 48.0 kHz
    Frame rate                               : 31.250 FPS (1536 SPF)
    Bit depth                                : 16 bits
    Compression mode                         : Lossy
    Stream size                              : 469 MiB (14%)
    Language                                 : English
    Service kind                             : Complete Main
    Default                                  : No
    Forced                                   : No
    Statistics Tags Issue                    : mkvmerge v15.0.0 ('Duel with the Devil') 64-bit 2018-09-28 00:22:59 / mkvmerge v15.0.0 ('Duel with the Devil') 64-bit 2018-09-28 00:22:59 / UTC 2018-09-27T21:43:25Z
    FromStats_BitRate                        : 640000
    FromStats_Duration                       : 01:42:24.160000000
    FromStats_FrameCount                     : 192005
    FromStats_StreamSize                     : 491532800

    Text #1
    ID                                       : 4
    Format                                   : UTF-8
    Codec ID                                 : S_TEXT/UTF8
    Codec ID/Info                            : UTF-8 Plain Text
    Title                                    : Forzado
    Language                                 : Spanish
    Default                                  : Yes
    Forced                                   : Yes
    Statistics Tags Issue                    : mkvmerge v15.0.0 ('Duel with the Devil') 64-bit 2018-09-28 00:22:59 / mkvmerge v15.0.0 ('Duel with the Devil') 64-bit 2018-09-28 00:22:59 / UTC 2018-09-27T21:43:25Z
    FromStats_BitRate                        : 2
    FromStats_Duration                       : 01:33:54.760000000
    FromStats_FrameCount                     : 66
    FromStats_StreamSize                     : 1697

    Text #2
    ID                                       : 5
    Format                                   : UTF-8
    Codec ID                                 : S_TEXT/UTF8
    Codec ID/Info                            : UTF-8 Plain Text
    Language                                 : Spanish
    Default                                  : No
    Forced                                   : No
    Statistics Tags Issue                    : mkvmerge v15.0.0 ('Duel with the Devil') 64-bit 2018-09-28 00:22:59 / mkvmerge v15.0.0 ('Duel with the Devil') 64-bit 2018-09-28 00:22:59 / UTC 2018-09-27T21:43:25Z
    FromStats_BitRate                        : 45
    FromStats_Duration                       : 01:33:54.760000000
    FromStats_FrameCount                     : 1118
    FromStats_StreamSize                     : 32149

  • Peso: 3.17 GiB

Sinopsis

Skyscraper 1080p megaRascacielos: rescate en las alturas google drive Will Ford es un antiguo líder del Equipo de Rescate de Rehenes del FBI y veterano de los marines que ahora trabaja como asesor de seguridad de los rascacielos. En una misión en China, Ford se encontrará con que el edificio más alto y seguro del mundo de repente se incendia. Mientras encuentra a los responsables del incendio, tendrá que intentar salvar a su familia atrapada dentro del rascacielos.

Ficha técnica

Video trailer de la película

Enlaces de descarga

Rip de Bluray

Descargar Rascacielos: rescate en las alturas (2018) 1080p Latino




Aportes de DPeliculasHDmega la pass es:dpeliculashdmega.org Aportes de CinemaniaHD la pass es:cinemaniahdd.com
Guardado en : Acción , Drama , Suspense

Películas relacionadas

  • The Night Comes For Us (2018) NF 1080p Latino

    2018
    The Night Comes For Us (2018) NF 1080p Latino

    1.0 2h 1m 2018

    The Night Comes For Us (2018) NF 1080p Latino; Mega, Google Drive. Un antiguo sicario debe proteger a...

    Director: Timo Tjahjanto

    Género: Acción

    Actores: Zack Lee

  • Illang: La brigada del lobo (2018) NF 1080p Latino

    2018
    Illang: La brigada del lobo (2018) NF 1080p Latino

    1.0 2h 19m 2018

    Descargar Illang: La brigada del lobo (2018) NF 1080p Latino; Mega, Google Drive. Basada en el anime...

    Director: Kim Jee-woon

    Género: Acción

    Actores: Shin Eun-soo

  • The Padre (2018) WEB-DL 1080p Latino

    2018
    The Padre (2018) WEB-DL 1080p Latino

    3.0 1h 38m 2018

    Descargar The Padre (2018) WEB-DL 1080p Latino; Mega, Google Drive. El juez estadounidense retirado Randall...

    Director: Jonathan Sobol

    Género: Drama

    Actores: Tim Roth

  • Mentes poderosas (2018) 1080p Latino

    2018
    Mentes poderosas (2018) 1080p Latino

    1.0 1h 45m 2018

    Descargar Mentes poderosas (2018) 1080p Latino; Mega, Google Drive. Encarcelados en un mundo adulto...

    Director: Jennifer Yuh Nelson

    Género: Ciencia ficción

    Actores: William Walker

Comentarios 0