Queen Rock Montreal (1981) Full 1080p Concierto

2.370 vistas
1 estrella2 estrellas3 estrellas4 estrellas5 estrellas (9 votos, promedio: 3,67 de 5)
Cargando…

Información de Queen Rock Montreal (1981) Full 1080p Concierto

Datos de la película

  • Calidad: Full 1080p
  • Audio: Ingles DTS 5.1 BLURAY
  • Subtitulos: No
  • Resolución: 1920x1080p
  • Formato: MKV
  • Codec: H.264
  • Encoder: Dracarys
  • Mediainfo: Clic para Mostrar Datos Ver
  • Format                                   : Matroska
    Format version                           : Version 4 / Version 2
    File size                                : 7.83 GiB
    Duration                                 : 1 h 35 min
    Overall bit rate                         : 11.8 Mb/s
    Movie name                               : CinemaniaHDD.com
    Encoded date                             : UTC 2018-05-17 18:44:38 / UTC 2018-05-17T11:50:03Z
    Writing application                      : mkvmerge v15.0.0 ('Duel with the Devil') 64-bit
    Writing library                          : libebml v1.3.5 + libmatroska v1.4.5 / Lavf57.7.2

    Video
    ID                                       : 1
    Format                                   : AVC
    Format/Info                              : Advanced Video Codec
    Format profile                           : High@L4.1
    Format settings                          : CABAC / 4 Ref Frames
    Format settings, CABAC                   : Yes
    Format settings, RefFrames               : 4 frames
    Codec ID                                 : V_MPEG4/ISO/AVC
    Duration                                 : 1 h 35 min
    Bit rate                                 : 10.0 Mb/s
    Width                                    : 1 920 pixels
    Height                                   : 1 080 pixels
    Display aspect ratio                     : 16:9
    Frame rate mode                          : Constant
    Frame rate                               : 23.976 (24000/1001) FPS
    Color space                              : YUV
    Chroma subsampling                       : 4:2:0
    Bit depth                                : 8 bits
    Scan type                                : Progressive
    Bits/(Pixel*Frame)                       : 0.202
    Stream size                              : 6.67 GiB (85%)
    Title                                    : Queen Rock Montreal (1981) Full 1080p Concierto
    Writing library                          : x264 core 148 r2708 86b7198
    Encoding settings                        : cabac=1 / ref=4 / deblock=1:0:0 / analyse=0x3:0x133 / me=esa / subme=9 / psy=1 / psy_rd=1.00:0.00 / mixed_ref=1 / me_range=16 / chroma_me=1 / trellis=2 / 8x8dct=1 / cqm=0 / deadzone=21,11 / fast_pskip=1 / chroma_qp_offset=-2 / threads=34 / lookahead_threads=2 / sliced_threads=0 / nr=0 / decimate=1 / interlaced=0 / bluray_compat=0 / constrained_intra=0 / bframes=3 / b_pyramid=2 / b_adapt=2 / b_bias=0 / direct=3 / weightb=1 / open_gop=0 / weightp=2 / keyint=240 / keyint_min=24 / scenecut=40 / intra_refresh=0 / rc_lookahead=60 / rc=crf / mbtree=1 / crf=20.0 / qcomp=0.60 / qpmin=0 / qpmax=69 / qpstep=4 / vbv_maxrate=62500 / vbv_bufsize=78125 / crf_max=0.0 / nal_hrd=none / filler=0 / ip_ratio=1.40 / aq=1:1.00
    Language                                 : English
    Default                                  : Yes
    Forced                                   : No
    Color range                              : Limited
    Color primaries                          : BT.709
    Transfer characteristics                 : BT.709
    Matrix coefficients                      : BT.709
    Statistics Tags Issue                    : mkvmerge v15.0.0 ('Duel with the Devil') 64-bit 2018-05-17 18:44:38 / mkvmerge v15.0.0 ('Duel with the Devil') 64-bit 2018-05-17 18:44:38 / UTC 2018-05-17T11:50:03Z
    FromStats_BitRate                        : 10266753
    FromStats_Duration                       : 01:35:10.705000000
    FromStats_FrameCount                     : 136920
    FromStats_StreamSize                     : 7328799901

    Audio
    ID                                       : 2
    Format                                   : DTS
    Format/Info                              : Digital Theater Systems
    Mode                                     : 16
    Format settings, Endianness              : Big
    Codec ID                                 : A_DTS
    Duration                                 : 1 h 35 min
    Bit rate mode                            : Constant
    Bit rate                                 : 1 509 kb/s
    Channel(s)                               : 6 channels
    Channel positions                        : Front: L C R, Side: L R, LFE
    Sampling rate                            : 48.0 kHz
    Frame rate                               : 93.750 FPS (512 SPF)
    Bit depth                                : 24 bits
    Compression mode                         : Lossy
    Stream size                              : 1.00 GiB (13%)
    Language                                 : English
    Default                                  : Yes
    Forced                                   : No
    Statistics Tags Issue                    : mkvmerge v15.0.0 ('Duel with the Devil') 64-bit 2018-05-17 18:44:38 / mkvmerge v15.0.0 ('Duel with the Devil') 64-bit 2018-05-17 18:44:38 / UTC 2018-05-17T11:50:03Z
    FromStats_BitRate                        : 1508999
    FromStats_Duration                       : 01:35:10.699000000
    FromStats_FrameCount                     : 535378
    FromStats_StreamSize                     : 1077180536

    Menu
    00:00:00.000                             : :Chapter 1
    00:02:04.791                             : :Chapter 2
    00:05:11.102                             : :Chapter 3
    00:08:14.452                             : :Chapter 4
    00:12:08.978                             : :Chapter 5
    00:19:47.937                             : :Chapter 6
    00:21:48.724                             : :Chapter 7
    00:23:51.764                             : :Chapter 8
    00:28:45.432                             : :Chapter 9
    00:32:53.138                             : :Chapter 10
    00:38:23.426                             : :Chapter 11
    00:41:38.579                             : :Chapter 12
    00:43:39.575                             : :Chapter 13
    00:47:24.675                             : :Chapter 14
    00:51:06.981                             : :Chapter 15
    00:54:40.235                             : :Chapter 16
    00:57:42.334                             : :Chapter 17
    01:03:06.366                             : :Chapter 18
    01:07:23.456                             : :Chapter 19
    01:10:09.914                             : :Chapter 20
    01:15:40.911                             : :Chapter 21
    01:19:29.848                             : :Chapter 22
    01:23:32.007                             : :Chapter 23
    01:27:26.992                             : :Chapter 24
    01:29:38.123                             : :Chapter 25
    01:33:04.162                             : :Chapter 26

  • Peso: 7.83 GiB

Sinopsis

Se trata de una grabación recogida los días 24 y 25 de Noviembre de 1981 en el Forum de la ciudad canadiense ante un público de unas 18.000 personas cada noche. Son los únicos conciertos de Queen grabados en película (incluso la banda fue el primer grupo en grabar en 35mm).

 

Tracklist 
01. Intro
02. We Will Rock You (Fast)
03. Let Me Entertain You
04. Play The Game
05. Somebody To Love
06. Killer Queen
07. I’m in Love With My Car
08. Get Down, Make Love
09. Save Me
10. Now I’m Here
11. Dragon Attack
12. Now I’m Here (Reprise)
13. Love of My Life
14. Under Pressure
15. Keep Yourself Alive (With Impromptu Jam Before The Song)
16. Drum Solo/Tympani Solo (Taylor)
17. Guitar Solo(May)
18. Flash
19. The Hero
20. Crazy Little Thing Called Love
21. Jailhouse Rock
22. Bohemian Rhapsody
23. Tie Your Mother Down
24. Another One Bites the Dust
25. Sheer Heart Attack
26. We Will Rock You (single)
27. We Are The Champions
28. God Save the Queen (tape)

Ficha técnica

Video trailer de la película

Enlaces de descarga

Rip de Bluray

Descargar Queen Rock Montreal (1981) Full 1080p Concierto




Aportes de DPeliculasHDmega la pass es:dpeliculashdmega.org Aportes de CinemaniaHD la pass es:cinemaniahdd.com
Guardado en : FULL 1080p Plateadas , Música

Películas relacionadas

  • Sicario (2015) Full 1080p Latino

    2015
    Sicario (2015) Full 1080p Latino

    5.0 2h 1m 2015

    En la zona fronteriza que se extiende entre Estados Unidos y México la joven Kate Macer, una idealista...

    Director: Judi Townsend

    Género: Acción

    Actores: Victor Garber

  • Fahrenheit 451 (2018) Full 1080p Latino

    2018
    Fahrenheit 451 (2018) Full 1080p Latino

    5.0 1h 36m 2018

    Michael B. Jordan y Michael Shannon protagonizan esta adaptación de HBO de la clásica novela distópica...

    Director: Ramin Bahrani

    Género: Ciencia ficción

    Actores: Tim Post

  • Atlantis el imperio perdido (2001) Full 1080p Latino

    2001
    Atlantis el imperio perdido (2001) Full 1080p Latino

    5.0 1h 35m 2001

    Un joven aventurero llamado Milo encuentra un antiguo diario que contiene pistas de cómo llegar a Atlantis,...

    Director: Lam Hoang

    Género: Animación

    Actores: Phil Morris

Comentarios 0