Por unos dólares más (1965) Full 1080p Latino

968 vistas
1 estrella2 estrellas3 estrellas4 estrellas5 estrellas (1 votos, promedio: 5,00 de 5)
Cargando…

Información de Por unos dólares más (1965) Full 1080p Latino

Datos de la película

  • Calidad: Full 1080p
  • Audio: Español Latino AC3 5.1 BLURAY - Ingles DTS 5.1 BLURAY
  • Subtitulos: Español Latino PGS - Ingles PGS
  • Resolución: 1920x1080p
  • Formato: MKV
  • Codec: H.264
  • Encoder: Dracarys
  • Mediainfo: Clic para Mostrar Datos Ver
  • Format                                   : Matroska
    Format version                           : Version 4 / Version 2
    File size                                : 18.6 GiB
    Duration                                 : 2 h 11 min
    Overall bit rate                         : 20.2 Mb/s
    Movie name                               : CinemaniaHDD.com
    Encoded date                             : UTC 2018-03-29 04:49:04 / UTC 2018-03-28T07:01:27Z
    Writing application                      : mkvmerge v15.0.0 ('Duel with the Devil') 64-bit
    Writing library                          : libebml v1.3.5 + libmatroska v1.4.5 / Lavf57.7.2

    Video
    ID                                       : 1
    Format                                   : AVC
    Format/Info                              : Advanced Video Codec
    Format profile                           : High@L4.1
    Format settings                          : CABAC / 4 Ref Frames
    Format settings, CABAC                   : Yes
    Format settings, RefFrames               : 4 frames
    Codec ID                                 : V_MPEG4/ISO/AVC
    Duration                                 : 2 h 11 min
    Bit rate                                 : 17.8 Mb/s
    Width                                    : 1 920 pixels
    Height                                   : 1 080 pixels
    Display aspect ratio                     : 16:9
    Frame rate mode                          : Constant
    Frame rate                               : 23.976 (24000/1001) FPS
    Color space                              : YUV
    Chroma subsampling                       : 4:2:0
    Bit depth                                : 8 bits
    Scan type                                : Progressive
    Bits/(Pixel*Frame)                       : 0.359
    Stream size                              : 16.4 GiB (88%)
    Title                                    : Por unos dólares más (1965) Full 1080p Latino
    Writing library                          : x264 core 148 r2708 86b7198
    Encoding settings                        : cabac=1 / ref=4 / deblock=1:0:0 / analyse=0x3:0x133 / me=esa / subme=9 / psy=1 / psy_rd=1.00:0.00 / mixed_ref=1 / me_range=16 / chroma_me=1 / trellis=2 / 8x8dct=1 / cqm=0 / deadzone=21,11 / fast_pskip=1 / chroma_qp_offset=-2 / threads=34 / lookahead_threads=2 / sliced_threads=0 / nr=0 / decimate=1 / interlaced=0 / bluray_compat=0 / constrained_intra=0 / bframes=3 / b_pyramid=2 / b_adapt=2 / b_bias=0 / direct=3 / weightb=1 / open_gop=0 / weightp=2 / keyint=240 / keyint_min=24 / scenecut=40 / intra_refresh=0 / rc_lookahead=60 / rc=crf / mbtree=1 / crf=20.0 / qcomp=0.60 / qpmin=0 / qpmax=69 / qpstep=4 / vbv_maxrate=62500 / vbv_bufsize=78125 / crf_max=0.0 / nal_hrd=none / filler=0 / ip_ratio=1.40 / aq=1:1.00
    Language                                 : English
    Default                                  : Yes
    Forced                                   : No
    Color range                              : Limited
    Color primaries                          : BT.709
    Transfer characteristics                 : BT.709
    Matrix coefficients                      : BT.709
    Statistics Tags Issue                    : mkvmerge v15.0.0 ('Duel with the Devil') 64-bit 2018-03-29 04:49:04 / mkvmerge v15.0.0 ('Duel with the Devil') 64-bit 2018-03-29 04:49:04 / UTC 2018-03-28T07:01:27Z
    FromStats_BitRate                        : 18214927
    FromStats_Duration                       : 02:11:42.895000000
    FromStats_FrameCount                     : 189480
    FromStats_StreamSize                     : 17993832357

    Audio #1
    ID                                       : 2
    Format                                   : AC-3
    Format/Info                              : Audio Coding 3
    Format settings, Endianness              : Big
    Codec ID                                 : A_AC3
    Duration                                 : 2 h 11 min
    Bit rate mode                            : Constant
    Bit rate                                 : 448 kb/s
    Channel(s)                               : 6 channels
    Channel positions                        : Front: L C R, Side: L R, LFE
    Sampling rate                            : 48.0 kHz
    Frame rate                               : 31.250 FPS (1536 SPF)
    Bit depth                                : 16 bits
    Compression mode                         : Lossy
    Stream size                              : 422 MiB (2%)
    Language                                 : Spanish
    Service kind                             : Complete Main
    Default                                  : Yes
    Forced                                   : No
    Statistics Tags Issue                    : mkvmerge v15.0.0 ('Duel with the Devil') 64-bit 2018-03-29 04:49:04 / mkvmerge v15.0.0 ('Duel with the Devil') 64-bit 2018-03-29 04:49:04 / UTC 2018-03-28T07:01:27Z
    FromStats_BitRate                        : 448000
    FromStats_Duration                       : 02:11:42.944000000
    FromStats_FrameCount                     : 246967
    FromStats_StreamSize                     : 442564864

    Audio #2
    ID                                       : 3
    Format                                   : DTS
    Format/Info                              : Digital Theater Systems
    Mode                                     : 16
    Format settings, Endianness              : Big
    Codec ID                                 : A_DTS
    Duration                                 : 2 h 11 min
    Bit rate mode                            : Constant
    Bit rate                                 : 1 509 kb/s
    Channel(s)                               : 6 channels
    Channel positions                        : Front: L C R, Side: L R, LFE
    Sampling rate                            : 48.0 kHz
    Frame rate                               : 93.750 FPS (512 SPF)
    Bit depth                                : 24 bits
    Compression mode                         : Lossy
    Stream size                              : 1.39 GiB (7%)
    Language                                 : English
    Default                                  : No
    Forced                                   : No
    Statistics Tags Issue                    : mkvmerge v15.0.0 ('Duel with the Devil') 64-bit 2018-03-29 04:49:04 / mkvmerge v15.0.0 ('Duel with the Devil') 64-bit 2018-03-29 04:49:04 / UTC 2018-03-28T07:01:27Z
    FromStats_BitRate                        : 1508999
    FromStats_Duration                       : 02:11:42.934000000
    FromStats_FrameCount                     : 740900
    FromStats_StreamSize                     : 1490690800

    Text #1
    ID                                       : 4
    Format                                   : PGS
    Muxing mode                              : zlib
    Codec ID                                 : S_HDMV/PGS
    Codec ID/Info                            : Picture based subtitle format used on BDs/HD-DVDs
    Language                                 : English
    Default                                  : No
    Forced                                   : No
    Statistics Tags Issue                    : mkvmerge v15.0.0 ('Duel with the Devil') 64-bit 2018-03-29 04:49:04 / mkvmerge v15.0.0 ('Duel with the Devil') 64-bit 2018-03-29 04:49:04 / UTC 2018-03-28T07:01:27Z
    FromStats_BitRate                        : 15577
    FromStats_Duration                       : 02:07:29.892000000
    FromStats_FrameCount                     : 1488
    FromStats_StreamSize                     : 14896033

    Text #2
    ID                                       : 5
    Format                                   : PGS
    Muxing mode                              : zlib
    Codec ID                                 : S_HDMV/PGS
    Codec ID/Info                            : Picture based subtitle format used on BDs/HD-DVDs
    Language                                 : Spanish
    Default                                  : No
    Forced                                   : No
    Statistics Tags Issue                    : mkvmerge v15.0.0 ('Duel with the Devil') 64-bit 2018-03-29 04:49:04 / mkvmerge v15.0.0 ('Duel with the Devil') 64-bit 2018-03-29 04:49:04 / UTC 2018-03-28T07:01:27Z
    FromStats_BitRate                        : 15147
    FromStats_Duration                       : 02:10:17.059000000
    FromStats_FrameCount                     : 1485
    FromStats_StreamSize                     : 14801183

    Menu
    00:00:00.000                             : :Chapter 1
    00:04:05.871                             : :Chapter 2
    00:06:27.095                             : :Chapter 3
    00:11:48.291                             : :Chapter 4
    00:13:07.161                             : :Chapter 5
    00:18:29.483                             : :Chapter 6
    00:24:25.005                             : :Chapter 7
    00:30:50.140                             : :Chapter 8
    00:32:51.595                             : :Chapter 9
    00:35:27.334                             : :Chapter 10
    00:40:05.778                             : :Chapter 11
    00:41:00.833                             : :Chapter 12
    00:48:31.158                             : :Chapter 13
    00:51:32.298                             : :Chapter 14
    00:57:14.932                             : :Chapter 15
    01:02:05.222                             : :Chapter 16
    01:04:07.719                             : :Chapter 17
    01:08:08.543                             : :Chapter 18
    01:10:07.245                             : :Chapter 19
    01:14:11.113                             : :Chapter 20
    01:21:22.127                             : :Chapter 21
    01:26:00.697                             : :Chapter 22
    01:30:13.325                             : :Chapter 23
    01:33:47.914                             : :Chapter 24
    01:35:55.083                             : :Chapter 25
    01:41:39.093                             : :Chapter 26
    01:47:33.155                             : :Chapter 27
    01:50:28.247                             : :Chapter 28
    01:55:21.164                             : :Chapter 29
    01:57:50.313                             : :Chapter 30
    02:00:51.745                             : :Chapter 31
    02:06:40.676                             : :Chapter 32

  • Peso: 18.6 GiB

Sinopsis

Dos cazadores de asesinos, rivales entre sí al principio, acaban por unirse para conseguir una misma presa, “El Indio”, un peligroso y sanguinario bandido por el que se ofrece la más alta recompensa conocida. Cada uno tiene motivos diferentes para dar caza al bandido, uno, su obsesión por conseguir el dinero que ofrecen, y el otro, para vengar el asesinato de su hija a manos del brutal asesino. También sus estilos son distintos, aunque infalibles, uno rápido y el otro frío y técnico.

Ficha técnica

Video trailer de la película

Enlaces de descarga

Rip de Bluray

Descargar Por unos dólares más (1965) Full 1080p Latino




Aportes de DPeliculasHDmega la pass es:dpeliculashdmega.org Aportes de CinemaniaHD la pass es:cinemaniahdd.com
Guardado en : FULL 1080p Plateadas , Western

Películas relacionadas

  • Si solo pudiera imaginar (2018) Full 1080p Latino

    2018
    Si solo pudiera imaginar (2018) Full 1080p Latino

    5.0 1 h 50 min 2018

    La historia real de la aclamada canción "I Can Only Imagine", la canción cristiana contemporánea más...

    Director: Jon Erwin

    Género: Drama

    Actores: Trace Adkins

  • El Justiciero (2014) Full 1080p Latino

    2014
    El Justiciero (2014) Full 1080p Latino

    4.0 2 h 12 min 2014

    Robert McCall, un antiguo agente de la CIA que lleva ahora una vida tranquila, abandona su retiro para...

    Director: Deirdre Horgan

    Género: Acción

    Actores: Yan Dron

  • James Bond Live and Let Die (1973) Full 1080p Latino

    1973
    James Bond Live and Let Die (1973) Full 1080p Latino

    0.0 2 h 1 min 1973

    En tan sólo veinticuatro horas, tres agentes del servicio secreto británico que investigaban una red...

    Director: Guy Hamilton

    Género: Acción

    Actores: Yaphet Kotto

Comentarios 2
  • MTorres - 30 abril, 2018

    QUE ES LO QUE LE PASA A GOOGLE DRVE QUE LE PIDE PERMISSION A UNO QUE RAYOS ES ESO

    • Dracarys - 01 mayo, 2018

      Usar otro servidor…