Pokémon: Volcanion y la maravilla mecánica (2016) 1080p Latino

901 vistas
1 estrella2 estrellas3 estrellas4 estrellas5 estrellas (1 votos, promedio: 5,00 de 5)
Cargando…

Información de Pokémon: Volcanion y la maravilla mecánica (2016) 1080p Latino

Datos de la película

  • Calidad: 1080p
  • Audio: Español Latino AC3 5.1 Netflix - Ingles AC3 5.1 BLURAY
  • Subtitulos: Español Latino SRT
  • Resolución: 1920X1080p
  • Formato: MKV
  • Codec: H.264
  • Encoder: CinemaniaHD
  • Mediainfo: Clic para Mostrar Datos Ver
  • Format                                   : Matroska
    Format version                           : Version 4 / Version 2
    File size                                : 2.80 GiB
    Duration                                 : 1 h 34 min
    Overall bit rate                         : 4 235 kb/s
    Movie name                               : CinemaniaHDD.COM
    Encoded date                             : UTC 2018-01-02 00:54:55 / UTC 2018-01-02T00:00:53Z
    Writing application                      : mkvmerge v17.0.0 ('Be Ur Friend') 64-bit
    Writing library                          : libebml v1.3.5 + libmatroska v1.4.8 / Lavf57.7.2

    Video
    ID                                       : 1
    Format                                   : AVC
    Format/Info                              : Advanced Video Codec
    Format profile                           : High@L4.1
    Format settings                          : CABAC / 4 Ref Frames
    Format settings, CABAC                   : Yes
    Format settings, RefFrames               : 4 frames
    Codec ID                                 : V_MPEG4/ISO/AVC
    Duration                                 : 1 h 34 min
    Bit rate                                 : 3 500 kb/s
    Width                                    : 1 920 pixels
    Height                                   : 1 080 pixels
    Display aspect ratio                     : 16:9
    Frame rate mode                          : Constant
    Frame rate                               : 23.976 (24000/1001) FPS
    Color space                              : YUV
    Chroma subsampling                       : 4:2:0
    Bit depth                                : 8 bits
    Scan type                                : Progressive
    Bits/(Pixel*Frame)                       : 0.070
    Stream size                              : 2.23 GiB (80%)
    Writing library                          : x264 core 148 r2708 86b7198
    Encoding settings                        : cabac=1 / ref=3 / deblock=1:0:0 / analyse=0x3:0x113 / me=hex / subme=7 / psy=1 / psy_rd=1.00:0.00 / mixed_ref=1 / me_range=16 / chroma_me=1 / trellis=1 / 8x8dct=1 / cqm=0 / deadzone=21,11 / fast_pskip=1 / chroma_qp_offset=-2 / threads=34 / lookahead_threads=5 / sliced_threads=0 / nr=0 / decimate=1 / interlaced=0 / bluray_compat=0 / constrained_intra=0 / bframes=3 / b_pyramid=2 / b_adapt=1 / b_bias=0 / direct=1 / weightb=1 / open_gop=0 / weightp=2 / keyint=240 / keyint_min=24 / scenecut=40 / intra_refresh=0 / rc_lookahead=40 / rc=abr / mbtree=1 / bitrate=3500 / ratetol=1.0 / qcomp=0.60 / qpmin=0 / qpmax=69 / qpstep=4 / vbv_maxrate=62500 / vbv_bufsize=78125 / nal_hrd=none / filler=0 / ip_ratio=1.40 / aq=1:1.00
    Default                                  : Yes
    Forced                                   : No
    Color range                              : Limited
    Color primaries                          : BT.709
    Transfer characteristics                 : BT.709
    Matrix coefficients                      : BT.709
    Statistics Tags Issue                    : mkvmerge v17.0.0 ('Be Ur Friend') 64-bit 2018-01-02 00:54:55 / mkvmerge v17.0.0 ('Be Ur Friend') 64-bit 2018-01-02 00:54:55 / UTC 2018-01-02T00:00:53Z
    FromStats_BitRate                        : 3489963
    FromStats_Duration                       : 01:33:55.046000000
    FromStats_FrameCount                     : 135106
    FromStats_StreamSize                     : 2458263370

    Audio #1
    ID                                       : 2
    Format                                   : AC-3
    Format/Info                              : Audio Coding 3
    Format settings, Endianness              : Big
    Codec ID                                 : A_AC3
    Duration                                 : 1 h 34 min
    Bit rate mode                            : Constant
    Bit rate                                 : 384 kb/s
    Channel(s)                               : 6 channels
    Channel positions                        : Front: L C R, Side: L R, LFE
    Sampling rate                            : 48.0 kHz
    Frame rate                               : 31.250 FPS (1536 SPF)
    Bit depth                                : 16 bits
    Compression mode                         : Lossy
    Stream size                              : 260 MiB (9%)
    Language                                 : Spanish
    Service kind                             : Complete Main
    Default                                  : Yes
    Forced                                   : No
    Statistics Tags Issue                    : mkvmerge v17.0.0 ('Be Ur Friend') 64-bit 2018-01-02 00:54:55 / mkvmerge v17.0.0 ('Be Ur Friend') 64-bit 2018-01-02 00:54:55 / UTC 2018-01-02T00:00:53Z
    FromStats_BitRate                        : 384000
    FromStats_Duration                       : 01:34:04.480000000
    FromStats_FrameCount                     : 176390
    FromStats_StreamSize                     : 270935040

    Audio #2
    ID                                       : 3
    Format                                   : AC-3
    Format/Info                              : Audio Coding 3
    Format settings, Endianness              : Big
    Codec ID                                 : A_AC3
    Duration                                 : 1 h 34 min
    Bit rate mode                            : Constant
    Bit rate                                 : 384 kb/s
    Channel(s)                               : 6 channels
    Channel positions                        : Front: L C R, Side: L R, LFE
    Sampling rate                            : 48.0 kHz
    Frame rate                               : 31.250 FPS (1536 SPF)
    Bit depth                                : 16 bits
    Compression mode                         : Lossy
    Delay relative to video                  : -5 ms
    Stream size                              : 260 MiB (9%)
    Language                                 : English
    Service kind                             : Complete Main
    Default                                  : No
    Forced                                   : No
    Statistics Tags Issue                    : mkvmerge v17.0.0 ('Be Ur Friend') 64-bit 2018-01-02 00:54:55 / mkvmerge v17.0.0 ('Be Ur Friend') 64-bit 2018-01-02 00:54:55 / UTC 2018-01-02T00:00:53Z
    FromStats_BitRate                        : 384000
    FromStats_Duration                       : 01:33:55.072000000
    FromStats_FrameCount                     : 176096
    FromStats_StreamSize                     : 270483456

    Text
    ID                                       : 4
    Format                                   : UTF-8
    Codec ID                                 : S_TEXT/UTF8
    Codec ID/Info                            : UTF-8 Plain Text
    Language                                 : German
    Default                                  : Yes
    Forced                                   : No
    Statistics Tags Issue                    : mkvmerge v17.0.0 ('Be Ur Friend') 64-bit 2018-01-02 00:54:55 / mkvmerge v17.0.0 ('Be Ur Friend') 64-bit 2018-01-02 00:54:55 / UTC 2018-01-02T00:00:53Z
    FromStats_BitRate                        : 43
    FromStats_Duration                       : 01:30:18.496000000
    FromStats_FrameCount                     : 1011
    FromStats_StreamSize                     : 29360

    Menu
    00:00:00.000                             : :00:00:00.000
    00:07:14.517                             : :00:07:14.392
    00:14:04.260                             : :00:14:04.260
    00:21:26.452                             : :00:21:26.452
    00:28:26.663                             : :00:28:26.663
    00:35:24.247                             : :00:35:24.247
    00:42:21.664                             : :00:42:21.664
    00:48:32.410                             : :00:48:32.409
    00:55:06.845                             : :00:55:06.845
    01:01:32.272                             : :01:01:32.188
    01:08:46.789                             : :01:08:46.706
    01:14:40.184                             : :01:14:40.184
    01:28:36.937                             : :01:28:36.811

     

  • Peso: 2.80 GiB

Sinopsis

En esta aventura de Pokémon, una fuerza misteriosa ata a Ash al Pokémon Mythical Volcanion cuando cae del cielo. Volcanion no puede escapar, y Ash es arrastrado a medida que continúa en su misión. Llegan a una ciudad de engranajes y engranajes, donde un ministro corrupto ha robado la última invención: el Pokémon Artificial Magearna, creado hace 500 años. El ministro planea usar el poder misterioso de Magearna para tomar el control del reino mecánico. ¿Puede Ash y Volcanion trabajar juntos para rescatar a Magearna? ¡Una de las mayores batallas en la historia de Pokémon está a punto de desplegarse!

Ficha técnica

  • Titulo original: ボルケニオンと機巧のマギアナ
  • Fecha de lanzamiento: 16-07-2016 (Japan)
  • Director: Kunihiko Yuyama
  • Género: Animación, Aventura
  • Puntuación: 5.0 1 votos
  • Duración:
    1h 24m

Video trailer de la película

Enlaces de descarga

Rip de Bluray

Descargar Pokémon: Volcanion y la maravilla mecánica (2016) 1080p Latino




Aportes de DPeliculasHDmega la pass es:dpeliculashdmega.org Aportes de CinemaniaHD la pass es:cinemaniahdd.com
Guardado en : Animación , Aventura

Películas relacionadas

  • Pato pato Ganso (2018) 1080p Latino

    2018
    Pato pato Ganso (2018) 1080p Latino

    0.0 1h 22m 2018

    Después de que sufrió una lesión, un soltero de alto vuelo se enfrenta a dos huérfanos de ojos muy...

    Director: Christopher Jenkins

    Género: 1080p Portada Negra

    Actores: Zendaya

  • James Bond Live and Let Die (1973) Full 1080p Latino

    1973
    James Bond Live and Let Die (1973) Full 1080p Latino

    0.0 2 h 1 min 1973

    En tan sólo veinticuatro horas, tres agentes del servicio secreto británico que investigaban una red...

    Director: Guy Hamilton

    Género: Acción

    Actores: Yaphet Kotto

Comentarios 2
  • snj - 02 enero, 2018

    Hola
    saldrá mejor audio?

    • dpelis - 02 enero, 2018

      no sabemos, es un excelente audio. todos los audios de netflix son de buena calidad, digamos un 8 a 9