Pocahontas (1995) Full 1080p Latino

970 vistas
1 estrella2 estrellas3 estrellas4 estrellas5 estrellas (2 votos, promedio: 3,00 de 5)
Cargando…

Información de Pocahontas (1995) Full 1080p Latino

Datos de la película

  • Calidad: Full 1080p
  • Audio: Español Latino AC3 5.1 BLURAY - Ingles DTS 5.1 BLURAY
  • Subtitulos: Español Latino PGS - Ingles PGS
  • Resolución: 1920x1080p
  • Formato: MKV
  • Codec: H.264
  • Encoder: Dracarys
  • Mediainfo: Clic para Mostrar Datos Ver
  • Format                                   : Matroska
    Format version                           : Version 4 / Version 2
    File size                                : 3.18 GiB
    Duration                                 : 1 h 21 min
    Overall bit rate                         : 5 618 kb/s
    Movie name                               : CinemaniaHDD.com
    Encoded date                             : UTC 2018-05-17 19:27:18 / UTC 2018-05-17T10:22:21Z
    Writing application                      : mkvmerge v15.0.0 ('Duel with the Devil') 64-bit
    Writing library                          : libebml v1.3.5 + libmatroska v1.4.5 / Lavf57.7.2

    Video
    ID                                       : 1
    Format                                   : AVC
    Format/Info                              : Advanced Video Codec
    Format profile                           : High@L4.1
    Format settings                          : CABAC / 4 Ref Frames
    Format settings, CABAC                   : Yes
    Format settings, RefFrames               : 4 frames
    Codec ID                                 : V_MPEG4/ISO/AVC
    Duration                                 : 1 h 21 min
    Bit rate                                 : 3 357 kb/s
    Width                                    : 1 920 pixels
    Height                                   : 1 080 pixels
    Display aspect ratio                     : 16:9
    Frame rate mode                          : Constant
    Frame rate                               : 23.976 (24000/1001) FPS
    Color space                              : YUV
    Chroma subsampling                       : 4:2:0
    Bit depth                                : 8 bits
    Scan type                                : Progressive
    Bits/(Pixel*Frame)                       : 0.068
    Stream size                              : 1.90 GiB (60%)
    Title                                    : Pocahontas (1995) Full 1080p Latino
    Writing library                          : x264 core 148 r2708 86b7198
    Encoding settings                        : cabac=1 / ref=4 / deblock=1:0:0 / analyse=0x3:0x133 / me=esa / subme=9 / psy=1 / psy_rd=1.00:0.00 / mixed_ref=1 / me_range=16 / chroma_me=1 / trellis=2 / 8x8dct=1 / cqm=0 / deadzone=21,11 / fast_pskip=1 / chroma_qp_offset=-2 / threads=34 / lookahead_threads=2 / sliced_threads=0 / nr=0 / decimate=1 / interlaced=0 / bluray_compat=0 / constrained_intra=0 / bframes=3 / b_pyramid=2 / b_adapt=2 / b_bias=0 / direct=3 / weightb=1 / open_gop=0 / weightp=2 / keyint=240 / keyint_min=24 / scenecut=40 / intra_refresh=0 / rc_lookahead=60 / rc=crf / mbtree=1 / crf=20.0 / qcomp=0.60 / qpmin=0 / qpmax=69 / qpstep=4 / vbv_maxrate=62500 / vbv_bufsize=78125 / crf_max=0.0 / nal_hrd=none / filler=0 / ip_ratio=1.40 / aq=1:1.00
    Language                                 : English
    Default                                  : Yes
    Forced                                   : No
    Color range                              : Limited
    Color primaries                          : BT.709
    Transfer characteristics                 : BT.709
    Matrix coefficients                      : BT.709
    Statistics Tags Issue                    : mkvmerge v15.0.0 ('Duel with the Devil') 64-bit 2018-05-17 19:27:18 / mkvmerge v15.0.0 ('Duel with the Devil') 64-bit 2018-05-17 19:27:18 / UTC 2018-05-17T10:22:21Z
    FromStats_BitRate                        : 3432396
    FromStats_Duration                       : 01:21:08.739000000
    FromStats_FrameCount                     : 116733
    FromStats_StreamSize                     : 2088930219

    Audio #1
    ID                                       : 2
    Format                                   : AC-3
    Format/Info                              : Audio Coding 3
    Format settings, Endianness              : Big
    Codec ID                                 : A_AC3
    Duration                                 : 1 h 21 min
    Bit rate mode                            : Constant
    Bit rate                                 : 640 kb/s
    Channel(s)                               : 6 channels
    Channel positions                        : Front: L C R, Side: L R, LFE
    Sampling rate                            : 48.0 kHz
    Frame rate                               : 31.250 FPS (1536 SPF)
    Bit depth                                : 16 bits
    Compression mode                         : Lossy
    Stream size                              : 371 MiB (11%)
    Language                                 : Spanish
    Service kind                             : Complete Main
    Default                                  : Yes
    Forced                                   : No
    Statistics Tags Issue                    : mkvmerge v15.0.0 ('Duel with the Devil') 64-bit 2018-05-17 19:27:18 / mkvmerge v15.0.0 ('Duel with the Devil') 64-bit 2018-05-17 19:27:18 / UTC 2018-05-17T10:22:21Z
    FromStats_BitRate                        : 640000
    FromStats_Duration                       : 01:21:08.768000000
    FromStats_FrameCount                     : 152149
    FromStats_StreamSize                     : 389501440

    Audio #2
    ID                                       : 3
    Format                                   : DTS
    Format/Info                              : Digital Theater Systems
    Mode                                     : 16
    Format settings, Endianness              : Big
    Codec ID                                 : A_DTS
    Duration                                 : 1 h 21 min
    Bit rate mode                            : Constant
    Bit rate                                 : 1 509 kb/s
    Channel(s)                               : 6 channels
    Channel positions                        : Front: L C R, Side: L R, LFE
    Sampling rate                            : 48.0 kHz
    Frame rate                               : 93.750 FPS (512 SPF)
    Bit depth                                : 24 bits
    Compression mode                         : Lossy
    Stream size                              : 876 MiB (27%)
    Language                                 : English
    Default                                  : No
    Forced                                   : No
    Statistics Tags Issue                    : mkvmerge v15.0.0 ('Duel with the Devil') 64-bit 2018-05-17 19:27:18 / mkvmerge v15.0.0 ('Duel with the Devil') 64-bit 2018-05-17 19:27:18 / UTC 2018-05-17T10:22:21Z
    FromStats_BitRate                        : 1509000
    FromStats_Duration                       : 01:21:08.736000000
    FromStats_FrameCount                     : 456444
    FromStats_StreamSize                     : 918365328

    Text #1
    ID                                       : 4
    Format                                   : UTF-8
    Codec ID                                 : S_TEXT/UTF8
    Codec ID/Info                            : UTF-8 Plain Text
    Title                                    : SRT
    Language                                 : Spanish
    Default                                  : No
    Forced                                   : No
    Statistics Tags Issue                    : mkvmerge v15.0.0 ('Duel with the Devil') 64-bit 2018-05-17 19:27:18 / mkvmerge v15.0.0 ('Duel with the Devil') 64-bit 2018-05-17 19:27:18 / UTC 2018-05-17T10:22:21Z
    FromStats_BitRate                        : 57
    FromStats_Duration                       : 01:14:08.942000000
    FromStats_FrameCount                     : 1130
    FromStats_StreamSize                     : 32174

    Text #2
    ID                                       : 5
    Format                                   : PGS
    Muxing mode                              : zlib
    Codec ID                                 : S_HDMV/PGS
    Codec ID/Info                            : Picture based subtitle format used on BDs/HD-DVDs
    Language                                 : English
    Default                                  : No
    Forced                                   : No
    Statistics Tags Issue                    : mkvmerge v15.0.0 ('Duel with the Devil') 64-bit 2018-05-17 19:27:18 / mkvmerge v15.0.0 ('Duel with the Devil') 64-bit 2018-05-17 19:27:18 / UTC 2018-05-17T10:22:21Z
    FromStats_BitRate                        : 37801
    FromStats_Duration                       : 01:14:09.862000000
    FromStats_FrameCount                     : 1952
    FromStats_StreamSize                     : 21026461

    Text #3
    ID                                       : 6
    Format                                   : PGS
    Muxing mode                              : zlib
    Codec ID                                 : S_HDMV/PGS
    Codec ID/Info                            : Picture based subtitle format used on BDs/HD-DVDs
    Language                                 : Spanish
    Default                                  : No
    Forced                                   : No
    Statistics Tags Issue                    : mkvmerge v15.0.0 ('Duel with the Devil') 64-bit 2018-05-17 19:27:18 / mkvmerge v15.0.0 ('Duel with the Devil') 64-bit 2018-05-17 19:27:18 / UTC 2018-05-17T10:22:21Z
    FromStats_BitRate                        : 50727
    FromStats_Duration                       : 01:14:08.949000000
    FromStats_FrameCount                     : 2260
    FromStats_StreamSize                     : 28210700

    Menu
    00:00:00.000                             : :Chapter 1
    00:03:59.906                             : :Chapter 2
    00:05:29.496                             : :Chapter 3
    00:07:41.169                             : :Chapter 4
    00:10:50.316                             : :Chapter 5
    00:12:38.466                             : :Chapter 6
    00:15:08.908                             : :Chapter 7
    00:16:48.758                             : :Chapter 8
    00:18:13.801                             : :Chapter 9
    00:22:39.608                             : :Chapter 10
    00:25:01.417                             : :Chapter 11
    00:28:51.438                             : :Chapter 12
    00:33:32.344                             : :Chapter 13
    00:35:59.783                             : :Chapter 14
    00:39:19.858                             : :Chapter 15
    00:43:13.424                             : :Chapter 16
    00:45:37.151                             : :Chapter 17
    00:48:03.047                             : :Chapter 18
    00:50:39.912                             : :Chapter 19
    00:54:07.953                             : :Chapter 20
    00:56:04.361                             : :Chapter 21
    01:01:50.373                             : :Chapter 22
    01:06:25.315                             : :Chapter 23
    01:08:17.385                             : :Chapter 24
    01:09:24.661                             : :Chapter 25
    01:10:30.017                             : :Chapter 26
    01:13:35.202                             : :Chapter 27
    01:15:37.658                             : :Chapter 28

  • Peso: 3.18 GiB

Sinopsis

Pocahontas, la hija del Jefe Powhatan, vigila la llegada de un gran grupo de colonos ingleses, guiados por el ambicioso gobernador Radcliff y el valiente capitán John Smith. Con su juguetón compañero Meeko, un travieso mapache, y con Flit, un alegre pájaro, Pocahontas entabla una fuerte amistad con el Capitán Smith. Pero cuando empiezan a surgir tensiones entre las dos culturas, Pocahontas recurre a la sabiduría de la Abuela Sauce para encontrar una manera de lograr la paz entre su pueblo y los conquistadores.

Ficha técnica

Video trailer de la película

Enlaces de descarga

Rip de Bluray

Descargar Pocahontas (1995) Full 1080p Latino




Aportes de DPeliculasHDmega la pass es:dpeliculashdmega.org Aportes de CinemaniaHD la pass es:cinemaniahdd.com

Películas relacionadas

Comentarios 0