Pet (2016) 1080p Latino

2.462 vistas
1 estrella2 estrellas3 estrellas4 estrellas5 estrellas (1 votos, promedio: 3,00 de 5)
Cargando…

Información de Pet (2016) 1080p Latino

pet latino

Datos de la película

  • Calidad: 1080p
  • Audio: Español Latino AC3 2.0 DVD - Ingles AC3 5.1 BLURAY
  • Subtitulos: Español Latino SRT - Ingles SRT
  • Resolución: 1920x1080p
  • Formato: MKV
  • Codec: H.264
  • Encoder: Dpelis
  • Mediainfo: Clic para Mostrar Datos Ver
  • Pet 2016 1080p Latino-Dpelis.mkv
    Format                      : Matroska
    Format version              : Version 4 / Version 2
    File size                   : 2.80 GiB
    Duration                    : 1 h 33 min
    Overall bit rate            : 4 268 kb/s
    Movie name                  : DPeliculasHDMega.ORG
    Encoded date                : UTC 2017-05-06 23:54:38 / UTC 2017-05-06T14:16:17Z
    Writing application         : mkvmerge v10.0.0 ('To Drown In You') 64bit
    Writing library             : libebml v1.3.4 + libmatroska v1.4.5 / Lavf57.7.2

    Video
    ID                          : 1
    Format                      : AVC
    Format/Info                 : Advanced Video Codec
    Format profile              : High@L4.1
    Format settings, CABAC      : Yes
    Format settings, ReFrames   : 4 frames
    Codec ID                    : V_MPEG4/ISO/AVC
    Duration                    : 1 h 33 min
    Bit rate                    : 3 500 kb/s
    Width                       : 1 920 pixels
    Height                      : 804 pixels
    Display aspect ratio        : 2.40:1
    Frame rate mode             : Constant
    Frame rate                  : 23.976 (24000/1001) FPS
    Color space                 : YUV
    Chroma subsampling          : 4:2:0
    Bit depth                   : 8 bits
    Scan type                   : Progressive
    Bits/(Pixel*Frame)          : 0.095
    Stream size                 : 2.20 GiB (79%)
    Writing library             : x264 core 148 r2708 86b7198
    Encoding settings           : cabac=1 / ref=3 / deblock=1:0:0 / analyse=0x3:0x113 / me=hex / subme=7 / psy=1 / psy_rd=1.00:0.00 / mixed_ref=1 / me_range=16 / chroma_me=1 / trellis=1 / 8x8dct=1 / cqm=0 / deadzone=21,11 / fast_pskip=1 / chroma_qp_offset=-2 / threads=12 / lookahead_threads=2 / sliced_threads=0 / nr=0 / decimate=1 / interlaced=0 / bluray_compat=0 / constrained_intra=0 / bframes=3 / b_pyramid=2 / b_adapt=1 / b_bias=0 / direct=1 / weightb=1 / open_gop=0 / weightp=2 / keyint=240 / keyint_min=24 / scenecut=40 / intra_refresh=0 / rc_lookahead=40 / rc=abr / mbtree=1 / bitrate=3500 / ratetol=1.0 / qcomp=0.60 / qpmin=0 / qpmax=69 / qpstep=4 / vbv_maxrate=62500 / vbv_bufsize=78125 / nal_hrd=none / filler=0 / ip_ratio=1.40 / aq=1:1.00
    Default                     : Yes
    Forced                      : No
    Color range                 : Limited
    Color primaries             : BT.709
    Transfer characteristics    : BT.709
    Matrix coefficients         : BT.709
    Statistics Tags Issue       : mkvmerge v10.0.0 ('To Drown In You') 64bit 2017-05-06 23:54:38 / mkvmerge v10.0.0 ('To Drown In You') 64bit 2017-05-06 23:54:38 / UTC 2017-05-06T14:16:17Z
    FromStats_BitRate           : 3447350
    FromStats_Duration          : 01:33:54.588000000
    FromStats_FrameCount        : 135095
    FromStats_StreamSize        : 2428049815

    Audio #1
    ID                          : 2
    Format                      : AC-3
    Format/Info                 : Audio Coding 3
    Format settings, Endianness : Big
    Codec ID                    : A_AC3
    Duration                    : 1 h 33 min
    Bit rate mode               : Constant
    Bit rate                    : 448 kb/s
    Channel(s)                  : 6 channels
    Channel positions           : Front: L C R, Side: L R, LFE
    Sampling rate               : 48.0 kHz
    Frame rate                  : 31.250 FPS (1536 spf)
    Bit depth                   : 16 bits
    Compression mode            : Lossy
    Delay relative to video     : -5 ms
    Stream size                 : 301 MiB (10%)
    Language                    : Spanish
    Service kind                : Complete Main
    Default                     : Yes
    Forced                      : No
    Statistics Tags Issue       : mkvmerge v10.0.0 ('To Drown In You') 64bit 2017-05-06 23:54:38 / mkvmerge v10.0.0 ('To Drown In You') 64bit 2017-05-06 23:54:38 / UTC 2017-05-06T14:16:17Z
    FromStats_BitRate           : 448000
    FromStats_Duration          : 01:31:09.408000000
    FromStats_FrameCount        : 170919
    FromStats_StreamSize        : 306286848

    Audio #2
    ID                          : 3
    Format                      : AC-3
    Format/Info                 : Audio Coding 3
    Format settings, Endianness : Big
    Codec ID                    : A_AC3
    Duration                    : 1 h 33 min
    Bit rate mode               : Constant
    Bit rate                    : 384 kb/s
    Channel(s)                  : 6 channels
    Channel positions           : Front: L C R, Side: L R, LFE
    Sampling rate               : 48.0 kHz
    Frame rate                  : 31.250 FPS (1536 spf)
    Bit depth                   : 16 bits
    Compression mode            : Lossy
    Delay relative to video     : -5 ms
    Stream size                 : 258 MiB (9%)
    Title                       : Surround
    Language                    : English
    Service kind                : Complete Main
    Default                     : No
    Forced                      : No
    Statistics Tags Issue       : mkvmerge v10.0.0 ('To Drown In You') 64bit 2017-05-06 23:54:38 / mkvmerge v10.0.0 ('To Drown In You') 64bit 2017-05-06 23:54:38 / UTC 2017-05-06T14:16:17Z
    FromStats_BitRate           : 384000
    FromStats_Duration          : 01:33:54.592000000
    FromStats_FrameCount        : 176081
    FromStats_StreamSize        : 270460416

    Text #1
    ID                          : 4
    Format                      : UTF-8
    Codec ID                    : S_TEXT/UTF8
    Codec ID/Info               : UTF-8 Plain Text
    Default                     : Yes
    Forced                      : No
    Statistics Tags Issue       : mkvmerge v10.0.0 ('To Drown In You') 64bit 2017-05-06 23:54:38 / mkvmerge v10.0.0 ('To Drown In You') 64bit 2017-05-06 23:54:38 / UTC 2017-05-06T14:16:17Z
    FromStats_BitRate           : 42
    FromStats_Duration          : 01:28:34.440000000
    FromStats_FrameCount        : 913
    FromStats_StreamSize        : 28042

    Text #2
    ID                          : 5
    Format                      : UTF-8
    Codec ID                    : S_TEXT/UTF8
    Codec ID/Info               : UTF-8 Plain Text
    Default                     : No
    Forced                      : No
    Statistics Tags Issue       : mkvmerge v10.0.0 ('To Drown In You') 64bit 2017-05-06 23:54:38 / mkvmerge v10.0.0 ('To Drown In You') 64bit 2017-05-06 23:54:38 / UTC 2017-05-06T14:16:17Z
    FromStats_BitRate           : 41
    FromStats_Duration          : 01:28:34.731000000
    FromStats_FrameCount        : 882
    FromStats_StreamSize        : 27321

    Menu
    00:00:00.000                : :Chapter 1
    00:07:59.354                : :Chapter 2
    00:15:59.584                : :Chapter 3
    00:23:59.229                : :Chapter 4
    00:31:59.167                : :Chapter 5
    00:39:59.188                : :Chapter 6
    00:47:59.293                : :Chapter 7
    00:55:59.606                : :Chapter 8
    01:03:59.919                : :Chapter 9
    01:11:59.315                : :Chapter 10
    01:19:59.378                : :Chapter 11
    01:27:59.566                : :Chapter 12

  • Peso: 2.80 GB

Sinopsis

Descargar Pelicula Pet 1080p Latino tambien conocida como Animal de Compañia HD latino, Seth (Monaghan) es un hombre que todavía está obsesionado con una chica fui a clase en su escuela. Tal es su obsesión por ella, decide secuestrar y mantenerla cautiva en el matadero donde trabaja. Sin embargo, pronto descubre que no es lo que parece

Ficha técnica

  • Titulo original: Pet
  • Fecha de lanzamiento: 24-09-2016 (Spain, United States of America)
  • Director: Carles Torrens
  • Género: Suspense, Terror
  • Puntuación: 3.0 1 votos
  • Duración:
    1h 30m

Video trailer de la película

Enlaces de descarga

Aportes de DPeliculasHDmega la pass es:dpeliculashdmega.org Aportes de CinemaniaHD la pass es:cinemaniahdd.com
Guardado en : Suspense , Terror

Películas relacionadas

  • Isle of the Dead (2016) WEB-DL 1080p Latino

    2016
    Isle of the Dead (2016) WEB-DL 1080p Latino

    0.0 1 h 27 min 2016

    Extraños atrapados en una isla aislada luchan por sobrevivir contra hordas de muertos.     Latino...

    Director: Nick Lyon

    Género: Terror

    Actores: Todd Cattell

  • El Justiciero (2014) Full 1080p Latino

    2014
    El Justiciero (2014) Full 1080p Latino

    4.0 2 h 12 min 2014

    Robert McCall, un antiguo agente de la CIA que lleva ahora una vida tranquila, abandona su retiro para...

    Director: Deirdre Horgan

    Género: Acción

    Actores: Yan Dron

  • James Bond Live and Let Die (1973) Full 1080p Latino

    1973
    James Bond Live and Let Die (1973) Full 1080p Latino

    0.0 2 h 1 min 1973

    En tan sólo veinticuatro horas, tres agentes del servicio secreto británico que investigaban una red...

    Director: Guy Hamilton

    Género: Acción

    Actores: Yaphet Kotto

Comentarios 2
  • eduard - 07 mayo, 2017

    hola gracias por la peli les hago una consulta saldra en caratula gris

    • dpelis - 07 mayo, 2017

      hola. si saldra cuando tenga el audio 5.1

      Saludos