Pacific Rim: Insurrección (2018) Full 1080p Latino

3.924 vistas
1 estrella2 estrellas3 estrellas4 estrellas5 estrellas (9 votos, promedio: 3,67 de 5)
Cargando…

Información de Pacific Rim: Insurrección (2018) Full 1080p Latino

Datos de la película

  • Calidad: Full 1080p
  • Audio: Español Latino AC3 5.1 BLURAY - Ingles AC3 5.1 BLURAY
  • Subtitulos: Español Latino PGS - Ingles PGS
  • Resolución: 1920x1080p
  • Formato: MKV
  • Codec: H.264
  • Encoder: Dracarys
  • Mediainfo: Clic para Mostrar Datos Ver
  • Format                                   : Matroska
    Format version                           : Version 4 / Version 2
    File size                                : 7.80 GiB
    Duration                                 : 1 h 50 min
    Overall bit rate                         : 10.1 Mb/s
    Movie name                               : CinemaniaHDD.com
    Encoded date                             : UTC 2018-06-13 00:28:55 / UTC 2018-06-12T19:43:57Z
    Writing application                      : mkvmerge v15.0.0 ('Duel with the Devil') 64-bit
    Writing library                          : libebml v1.3.5 + libmatroska v1.4.5 / Lavf57.7.2

    Video
    ID                                       : 1
    Format                                   : AVC
    Format/Info                              : Advanced Video Codec
    Format profile                           : High@L4.1
    Format settings                          : CABAC / 4 Ref Frames
    Format settings, CABAC                   : Yes
    Format settings, RefFrames               : 4 frames
    Codec ID                                 : V_MPEG4/ISO/AVC
    Duration                                 : 1 h 50 min
    Bit rate                                 : 8 991 kb/s
    Width                                    : 1 920 pixels
    Height                                   : 1 080 pixels
    Display aspect ratio                     : 16:9
    Frame rate mode                          : Constant
    Frame rate                               : 23.976 (24000/1001) FPS
    Color space                              : YUV
    Chroma subsampling                       : 4:2:0
    Bit depth                                : 8 bits
    Scan type                                : Progressive
    Bits/(Pixel*Frame)                       : 0.181
    Stream size                              : 6.95 GiB (89%)
    Title                                    : Pacific Rim Insurrección (2018) Full 1080p Latino
    Writing library                          : x264 core 148 r2708 86b7198
    Encoding settings                        : cabac=1 / ref=4 / deblock=1:0:0 / analyse=0x3:0x133 / me=esa / subme=9 / psy=1 / psy_rd=1.00:0.00 / mixed_ref=1 / me_range=16 / chroma_me=1 / trellis=2 / 8x8dct=1 / cqm=0 / deadzone=21,11 / fast_pskip=1 / chroma_qp_offset=-2 / threads=34 / lookahead_threads=2 / sliced_threads=0 / nr=0 / decimate=1 / interlaced=0 / bluray_compat=0 / constrained_intra=0 / bframes=3 / b_pyramid=2 / b_adapt=2 / b_bias=0 / direct=3 / weightb=1 / open_gop=0 / weightp=2 / keyint=240 / keyint_min=24 / scenecut=40 / intra_refresh=0 / rc_lookahead=60 / rc=crf / mbtree=1 / crf=20.0 / qcomp=0.60 / qpmin=0 / qpmax=69 / qpstep=4 / vbv_maxrate=62500 / vbv_bufsize=78125 / crf_max=0.0 / nal_hrd=none / filler=0 / ip_ratio=1.40 / aq=1:1.00
    Language                                 : English
    Default                                  : Yes
    Forced                                   : No
    Color range                              : Limited
    Color primaries                          : BT.709
    Transfer characteristics                 : BT.709
    Matrix coefficients                      : BT.709
    Statistics Tags Issue                    : mkvmerge v15.0.0 ('Duel with the Devil') 64-bit 2018-06-13 00:28:55 / mkvmerge v15.0.0 ('Duel with the Devil') 64-bit 2018-06-13 00:28:55 / UTC 2018-06-12T19:43:57Z
    FromStats_BitRate                        : 8398664
    FromStats_Duration                       : 01:50:42.178000000
    FromStats_FrameCount                     : 159253
    FromStats_StreamSize                     : 6973178173

    Audio #1
    ID                                       : 2
    Format                                   : AC-3
    Format/Info                              : Audio Coding 3
    Format settings, Endianness              : Big
    Codec ID                                 : A_AC3
    Duration                                 : 1 h 50 min
    Bit rate mode                            : Constant
    Bit rate                                 : 448 kb/s
    Channel(s)                               : 6 channels
    Channel positions                        : Front: L C R, Side: L R, LFE
    Sampling rate                            : 48.0 kHz
    Frame rate                               : 31.250 FPS (1536 SPF)
    Bit depth                                : 16 bits
    Compression mode                         : Lossy
    Stream size                              : 355 MiB (4%)
    Title                                    : Latino-5.1
    Language                                 : Spanish
    Service kind                             : Complete Main
    Default                                  : Yes
    Forced                                   : No
    Statistics Tags Issue                    : mkvmerge v15.0.0 ('Duel with the Devil') 64-bit 2018-06-13 00:28:55 / mkvmerge v15.0.0 ('Duel with the Devil') 64-bit 2018-06-13 00:28:55 / UTC 2018-06-12T19:43:57Z
    FromStats_BitRate                        : 448000
    FromStats_Duration                       : 01:50:42.208000000
    FromStats_FrameCount                     : 207569
    FromStats_StreamSize                     : 371963648

    Audio #2
    ID                                       : 3
    Format                                   : E-AC-3
    Format/Info                              : Enhanced Audio Coding 3
    Format settings, Endianness              : Big
    Codec ID                                 : A_EAC3
    Duration                                 : 1 h 50 min
    Bit rate mode                            : Constant
    Bit rate                                 : 500 b/s
    Channel(s)                               : 6 channels
    Channel positions                        : Front: L C R, Side: L R, LFE
    Sampling rate                            : 48.0 kHz
    Frame rate                               : 187.500 FPS (256 SPF)
    Compression mode                         : Lossy
    Stream size                              : 405 KiB (0%)
    Title                                    : Latino-7.1
    Language                                 : Spanish
    Service kind                             : Complete Main
    Default                                  : No
    Forced                                   : No
    Statistics Tags Issue                    : mkvmerge v15.0.0 ('Duel with the Devil') 64-bit 2018-06-13 00:28:55 / mkvmerge v15.0.0 ('Duel with the Devil') 64-bit 2018-06-13 00:28:55 / UTC 2018-06-12T19:43:57Z
    FromStats_BitRate                        : 768000
    FromStats_Duration                       : 01:50:42.208000000
    FromStats_FrameCount                     : 207569
    FromStats_StreamSize                     : 637651968

    Audio #3
    ID                                       : 4
    Format                                   : AC-3
    Format/Info                              : Audio Coding 3
    Format settings, Endianness              : Big
    Codec ID                                 : A_AC3
    Duration                                 : 1 h 50 min
    Bit rate mode                            : Constant
    Bit rate                                 : 448 kb/s
    Channel(s)                               : 6 channels
    Channel positions                        : Front: L C R, Side: L R, LFE
    Sampling rate                            : 48.0 kHz
    Frame rate                               : 31.250 FPS (1536 SPF)
    Bit depth                                : 16 bits
    Compression mode                         : Lossy
    Stream size                              : 355 MiB (4%)
    Title                                    : Ingles-5.1
    Language                                 : English
    Service kind                             : Complete Main
    Default                                  : No
    Forced                                   : No
    Statistics Tags Issue                    : mkvmerge v15.0.0 ('Duel with the Devil') 64-bit 2018-06-13 00:28:55 / mkvmerge v15.0.0 ('Duel with the Devil') 64-bit 2018-06-13 00:28:55 / UTC 2018-06-12T19:43:57Z
    FromStats_BitRate                        : 448000
    FromStats_Duration                       : 01:50:42.208000000
    FromStats_FrameCount                     : 207569
    FromStats_StreamSize                     : 371963648

    Text #1
    ID                                       : 5
    Format                                   : PGS
    Muxing mode                              : zlib
    Codec ID                                 : S_HDMV/PGS
    Codec ID/Info                            : Picture based subtitle format used on BDs/HD-DVDs
    Language                                 : English
    Default                                  : No
    Forced                                   : No
    Statistics Tags Issue                    : mkvmerge v15.0.0 ('Duel with the Devil') 64-bit 2018-06-13 00:28:55 / mkvmerge v15.0.0 ('Duel with the Devil') 64-bit 2018-06-13 00:28:55 / UTC 2018-06-12T19:43:57Z
    FromStats_BitRate                        : 44975
    FromStats_Duration                       : 01:40:08.795000000
    FromStats_FrameCount                     : 3200
    FromStats_StreamSize                     : 33780869

    Text #2
    ID                                       : 6
    Format                                   : PGS
    Muxing mode                              : zlib
    Codec ID                                 : S_HDMV/PGS
    Codec ID/Info                            : Picture based subtitle format used on BDs/HD-DVDs
    Language                                 : Spanish
    Default                                  : No
    Forced                                   : No
    Statistics Tags Issue                    : mkvmerge v15.0.0 ('Duel with the Devil') 64-bit 2018-06-13 00:28:55 / mkvmerge v15.0.0 ('Duel with the Devil') 64-bit 2018-06-13 00:28:55 / UTC 2018-06-12T19:43:57Z
    FromStats_BitRate                        : 30755
    FromStats_Duration                       : 01:49:54.714000000
    FromStats_FrameCount                     : 2892
    FromStats_StreamSize                     : 25352630

    Text #3
    ID                                       : 7
    Format                                   : PGS
    Muxing mode                              : zlib
    Codec ID                                 : S_HDMV/PGS
    Codec ID/Info                            : Picture based subtitle format used on BDs/HD-DVDs
    Title                                    : Forzados
    Language                                 : Spanish
    Default                                  : Yes
    Forced                                   : Yes
    Statistics Tags Issue                    : mkvmerge v15.0.0 ('Duel with the Devil') 64-bit 2018-06-13 00:28:55 / mkvmerge v15.0.0 ('Duel with the Devil') 64-bit 2018-06-13 00:28:55 / UTC 2018-06-12T19:43:57Z
    FromStats_BitRate                        : 1699
    FromStats_Duration                       : 01:48:50.566000000
    FromStats_FrameCount                     : 162
    FromStats_StreamSize                     : 1387077

    Menu
    00:00:00.000                             : :Chapter 1
    00:06:54.873                             : :Chapter 2
    00:13:05.368                             : :Chapter 3
    00:15:51.075                             : :Chapter 4
    00:20:36.360                             : :Chapter 5
    00:24:49.697                             : :Chapter 6
    00:31:08.241                             : :Chapter 7
    00:37:56.065                             : :Chapter 8
    00:43:37.949                             : :Chapter 9
    00:49:01.939                             : :Chapter 10
    00:53:40.926                             : :Chapter 11
    00:58:12.030                             : :Chapter 12
    01:04:45.006                             : :Chapter 13
    01:09:25.536                             : :Chapter 14
    01:14:36.722                             : :Chapter 15
    01:22:53.427                             : :Chapter 16
    01:29:02.546                             : :Chapter 17
    01:33:10.585                             : :Chapter 18
    01:38:07.382                             : :Chapter 19
    01:40:55.049                             : :Chapter 20

  • Peso: 7.80 GiB

Sinopsis

Un futuro cercano. Después de la primera invasión que sufrió la humanidad, la lucha aun no ha terminado. El planeta vuelve a ser asediado por los Kaiju, una raza de alienígenas colosales que emergen desde un portal interdimensional, con el objetivo de destruir a la raza humana. Ante esta nueva amenaza para la cual los humanos no están preparados, los Jaegers, robots gigantes de guerra pilotados por dos personas para sobrellevar la inmensa carga neural que conlleva manipularlos, ya no están a la altura de lo que se les viene encima. Será entonces cuando los supervivientes de la primera invasión, además de nuevos personajes como el hijo de Pentecost (John Boyega), tendrán que idear la manera de sorprender al enorme enemigo, apostando por nuevas estrategias defensivas y de ataque. Con la Tierra en ruinas e intentando reconstruirse, esta nueva batalla puede ser decisiva para el futuro.

 

Esta versión cuenta con audio latino [E-AC3 7.1]

Ficha técnica

Video trailer de la película

Enlaces de descarga

Rip de Bluray

Descargar Pacific Rim: Insurrección (2018) Full 1080p Latino




Aportes de DPeliculasHDmega la pass es:dpeliculashdmega.org Aportes de CinemaniaHD la pass es:cinemaniahdd.com

Películas relacionadas

  • Lady Bird (2017) Full 1080p Latino

    2017
    Lady Bird (2017) Full 1080p Latino

    5.0 1h 34m 2017

    Sacramento, California, año 2002. Una joven llamada Christine McPherson (Saoirse Ronan), apodada como...

    Director: Jonas Spaccarotelli

    Género: Comedia

    Actores: Tracy Letts

  • Plan de escape (2013) Full 1080p Latino

    2013
    Plan de escape (2013) Full 1080p Latino

    3.0 1h 56m 2013

    El experto en seguridad Ray Breslin prueba sus teorías poco convencionales en diseño de prisiones elaborando...

    Director: Mikael Håfström

    Género: Acción

    Actores: Vinnie Jones

Comentarios 6
  • Avionofwar - 17 junio, 2018

    Podrías subir el ingles 7.1

    • dpelis - 18 junio, 2018

      no estimado

  • Melchor - 13 junio, 2018

    No entiendo: arriba dice audio latino 5.1 y más abajo dice audlo latino 7.1. Podrían explicar mejor: a mí el audio 7.1 no me funsiona.

    • Dracarys - 13 junio, 2018

      el bluray tenia audio latino 5.1 y 7.1 pero el 7.1 tiene un codec diferente por eso tal vez no lo puedes escuchar!

  • TorukMacto - 13 junio, 2018

    Thanks…PAL!!!

  • ocpgaiden - 13 junio, 2018

    gracias por titanes del pacifico insurrección, y por el audio dolby digital plus 7.1 ch, saludos