Oz: el poderoso (2013) Full 1080p Latino

705 vistas
1 estrella2 estrellas3 estrellas4 estrellas5 estrellas (Ninguna valoración todavía)
Cargando…

Información de Oz: el poderoso (2013) Full 1080p Latino

Datos de la película

  • Calidad: Full 1080p
  • Audio: Español Latino AC3 5.1 BLURAY - Ingles DTS 5.1 BLURAY
  • Subtitulos: Español Latino PGS - Ingles PGS
  • Resolución: 1920x1080p
  • Formato: MKV
  • Codec: H.264
  • Encoder: Dracarys
  • Mediainfo: Clic para Mostrar Datos Ver
  • Format                                   : Matroska
    Format version                           : Version 4 / Version 2
    File size                                : 6.48 GiB
    Duration                                 : 2 h 9 min
    Overall bit rate                         : 7 160 kb/s
    Movie name                               : CinemaniaHDD.com
    Encoded date                             : UTC 2018-05-16 03:29:22 / UTC 2018-05-13T12:59:36Z
    Writing application                      : mkvmerge v15.0.0 ('Duel with the Devil') 64-bit
    Writing library                          : libebml v1.3.5 + libmatroska v1.4.5 / Lavf57.7.2

    Video
    ID                                       : 1
    Format                                   : AVC
    Format/Info                              : Advanced Video Codec
    Format profile                           : High@L4.1
    Format settings                          : CABAC / 4 Ref Frames
    Format settings, CABAC                   : Yes
    Format settings, RefFrames               : 4 frames
    Codec ID                                 : V_MPEG4/ISO/AVC
    Duration                                 : 2 h 9 min
    Bit rate                                 : 4 868 kb/s
    Width                                    : 1 920 pixels
    Height                                   : 1 080 pixels
    Display aspect ratio                     : 16:9
    Frame rate mode                          : Constant
    Frame rate                               : 23.976 (24000/1001) FPS
    Color space                              : YUV
    Chroma subsampling                       : 4:2:0
    Bit depth                                : 8 bits
    Scan type                                : Progressive
    Bits/(Pixel*Frame)                       : 0.098
    Stream size                              : 4.41 GiB (68%)
    Title                                    : Oz el poderoso (2013) Full 1080p Latino
    Writing library                          : x264 core 148 r2708 86b7198
    Encoding settings                        : cabac=1 / ref=4 / deblock=1:0:0 / analyse=0x3:0x133 / me=esa / subme=9 / psy=1 / psy_rd=1.00:0.00 / mixed_ref=1 / me_range=16 / chroma_me=1 / trellis=2 / 8x8dct=1 / cqm=0 / deadzone=21,11 / fast_pskip=1 / chroma_qp_offset=-2 / threads=34 / lookahead_threads=2 / sliced_threads=0 / nr=0 / decimate=1 / interlaced=0 / bluray_compat=0 / constrained_intra=0 / bframes=3 / b_pyramid=2 / b_adapt=2 / b_bias=0 / direct=3 / weightb=1 / open_gop=0 / weightp=2 / keyint=240 / keyint_min=24 / scenecut=40 / intra_refresh=0 / rc_lookahead=60 / rc=crf / mbtree=1 / crf=20.0 / qcomp=0.60 / qpmin=0 / qpmax=69 / qpstep=4 / vbv_maxrate=62500 / vbv_bufsize=78125 / crf_max=0.0 / nal_hrd=none / filler=0 / ip_ratio=1.40 / aq=1:1.00
    Language                                 : English
    Default                                  : Yes
    Forced                                   : No
    Color range                              : Limited
    Color primaries                          : BT.709
    Transfer characteristics                 : BT.709
    Matrix coefficients                      : BT.709
    Statistics Tags Issue                    : mkvmerge v15.0.0 ('Duel with the Devil') 64-bit 2018-05-16 03:29:22 / mkvmerge v15.0.0 ('Duel with the Devil') 64-bit 2018-05-16 03:29:22 / UTC 2018-05-13T12:59:36Z
    FromStats_BitRate                        : 4987163
    FromStats_Duration                       : 02:09:34.267000000
    FromStats_FrameCount                     : 186396
    FromStats_StreamSize                     : 4846442571

    Audio #1
    ID                                       : 2
    Format                                   : AC-3
    Format/Info                              : Audio Coding 3
    Format settings, Endianness              : Big
    Codec ID                                 : A_AC3
    Duration                                 : 2 h 9 min
    Bit rate mode                            : Constant
    Bit rate                                 : 640 kb/s
    Channel(s)                               : 6 channels
    Channel positions                        : Front: L C R, Side: L R, LFE
    Sampling rate                            : 48.0 kHz
    Frame rate                               : 31.250 FPS (1536 SPF)
    Bit depth                                : 16 bits
    Compression mode                         : Lossy
    Stream size                              : 593 MiB (9%)
    Language                                 : Spanish
    Service kind                             : Complete Main
    Default                                  : Yes
    Forced                                   : No
    Statistics Tags Issue                    : mkvmerge v15.0.0 ('Duel with the Devil') 64-bit 2018-05-16 03:29:22 / mkvmerge v15.0.0 ('Duel with the Devil') 64-bit 2018-05-16 03:29:22 / UTC 2018-05-13T12:59:36Z
    FromStats_BitRate                        : 640000
    FromStats_Duration                       : 02:09:34.336000000
    FromStats_FrameCount                     : 242948
    FromStats_StreamSize                     : 621946880

    Audio #2
    ID                                       : 3
    Format                                   : DTS
    Format/Info                              : Digital Theater Systems
    Mode                                     : 16
    Format settings, Endianness              : Big
    Codec ID                                 : A_DTS
    Duration                                 : 2 h 9 min
    Bit rate mode                            : Constant
    Bit rate                                 : 1 509 kb/s
    Channel(s)                               : 6 channels
    Channel positions                        : Front: L C R, Side: L R, LFE
    Sampling rate                            : 48.0 kHz
    Frame rate                               : 93.750 FPS (512 SPF)
    Bit depth                                : 24 bits
    Compression mode                         : Lossy
    Stream size                              : 1.37 GiB (21%)
    Language                                 : English
    Default                                  : No
    Forced                                   : No
    Statistics Tags Issue                    : mkvmerge v15.0.0 ('Duel with the Devil') 64-bit 2018-05-16 03:29:22 / mkvmerge v15.0.0 ('Duel with the Devil') 64-bit 2018-05-16 03:29:22 / UTC 2018-05-13T12:59:36Z
    FromStats_BitRate                        : 1509000
    FromStats_Duration                       : 02:09:34.304000000
    FromStats_FrameCount                     : 728841
    FromStats_StreamSize                     : 1466428092

    Text #1
    ID                                       : 4
    Format                                   : PGS
    Muxing mode                              : zlib
    Codec ID                                 : S_HDMV/PGS
    Codec ID/Info                            : Picture based subtitle format used on BDs/HD-DVDs
    Language                                 : English
    Default                                  : No
    Forced                                   : No
    Statistics Tags Issue                    : mkvmerge v15.0.0 ('Duel with the Devil') 64-bit 2018-05-16 03:29:22 / mkvmerge v15.0.0 ('Duel with the Devil') 64-bit 2018-05-16 03:29:22 / UTC 2018-05-13T12:59:36Z
    FromStats_BitRate                        : 36971
    FromStats_Duration                       : 02:08:17.857000000
    FromStats_FrameCount                     : 4017
    FromStats_StreamSize                     : 35575314

    Text #2
    ID                                       : 5
    Format                                   : PGS
    Muxing mode                              : zlib
    Codec ID                                 : S_HDMV/PGS
    Codec ID/Info                            : Picture based subtitle format used on BDs/HD-DVDs
    Language                                 : Spanish
    Default                                  : No
    Forced                                   : No
    Statistics Tags Issue                    : mkvmerge v15.0.0 ('Duel with the Devil') 64-bit 2018-05-16 03:29:22 / mkvmerge v15.0.0 ('Duel with the Devil') 64-bit 2018-05-16 03:29:22 / UTC 2018-05-13T12:59:36Z
    FromStats_BitRate                        : 30996
    FromStats_Duration                       : 02:01:58.353000000
    FromStats_FrameCount                     : 3164
    FromStats_StreamSize                     : 28355477

    Text #3
    ID                                       : 6
    Format                                   : PGS
    Muxing mode                              : zlib
    Codec ID                                 : S_HDMV/PGS
    Codec ID/Info                            : Picture based subtitle format used on BDs/HD-DVDs
    Title                                    : Forzados
    Language                                 : Spanish
    Default                                  : Yes
    Forced                                   : Yes
    Statistics Tags Issue                    : mkvmerge v15.0.0 ('Duel with the Devil') 64-bit 2018-05-16 03:29:22 / mkvmerge v15.0.0 ('Duel with the Devil') 64-bit 2018-05-16 03:29:22 / UTC 2018-05-13T12:59:36Z
    FromStats_BitRate                        : 96
    FromStats_Duration                       : 01:17:29.687000000
    FromStats_FrameCount                     : 8
    FromStats_StreamSize                     : 56059

  • Peso: 6.48 GiB

Sinopsis

Recrea los orígenes del Mago de Oz. Oscar Diggs (James Franco), un mago de circo de poca monta y de dudosa reputación, tiene que abandonar la polvorienta Kansas y trasladarse al brillante País de Oz. Está convencido de que a partir de ahora la fama y la fortuna le sonreirán. Pero, cuando las brujas Theodora (Mila Kunis), Evanora (Rachel Weisz) y Glinda (Michelle Williams) empiezan a dudar de su categoria como mago, entonces todo serán problemas para él. Si quiere triunfar, tendrá que averiguar cuanto antes quiénes son buenos y quiénes son malos.

Ficha técnica

Video trailer de la película

Enlaces de descarga

Rip de Bluray

Descargar Oz: el poderoso (2013) Full 1080p Latino




Aportes de DPeliculasHDmega la pass es:dpeliculashdmega.org Aportes de CinemaniaHD la pass es:cinemaniahdd.com

Películas relacionadas

  • Lady Bird (2017) Full 1080p Latino

    2017
    Lady Bird (2017) Full 1080p Latino

    5.0 1h 34m 2017

    Sacramento, California, año 2002. Una joven llamada Christine McPherson (Saoirse Ronan), apodada como...

    Director: Jonas Spaccarotelli

    Género: Comedia

    Actores: Tracy Letts

  • Plan de escape (2013) Full 1080p Latino

    2013
    Plan de escape (2013) Full 1080p Latino

    3.0 1h 56m 2013

    El experto en seguridad Ray Breslin prueba sus teorías poco convencionales en diseño de prisiones elaborando...

    Director: Mikael Håfström

    Género: Acción

    Actores: Vinnie Jones

Comentarios 0