Operación Red Sparrow (2018) 1080p Latino

2.680 vistas
1 estrella2 estrellas3 estrellas4 estrellas5 estrellas (2 votos, promedio: 5,00 de 5)
Cargando…

Información de Operación Red Sparrow (2018) 1080p Latino

Datos de la película

  • Calidad: 1080p
  • Audio: Español Latino AC3 5.1 BLURAY - Ingles AC3 5.1 BLURAY
  • Subtitulos: Español Latino SRT
  • Resolución: 1920x800p
  • Formato: MKV
  • Codec: H.264
  • Encoder: Dracarys
  • Mediainfo: Clic para Mostrar Datos Ver
  • Format                                   : Matroska
    Format version                           : Version 4 / Version 2
    File size                                : 4.41 GiB
    Duration                                 : 2 h 20 min
    Overall bit rate                         : 4 500 kb/s
    Movie name                               : CinemaniaHDD.com
    Encoded date                             : UTC 2018-05-09 22:22:39 / UTC 2018-05-09T17:12:38Z
    Writing application                      : mkvmerge v15.0.0 ('Duel with the Devil') 64-bit
    Writing library                          : libebml v1.3.5 + libmatroska v1.4.5 / Lavf57.7.2

    Video
    ID                                       : 1
    Format                                   : AVC
    Format/Info                              : Advanced Video Codec
    Format profile                           : High@L4.1
    Format settings                          : CABAC / 5 Ref Frames
    Format settings, CABAC                   : Yes
    Format settings, RefFrames               : 5 frames
    Codec ID                                 : V_MPEG4/ISO/AVC
    Duration                                 : 2 h 20 min
    Bit rate                                 : 3 323 kb/s
    Nominal bit rate                         : 3 500 kb/s
    Width                                    : 1 920 pixels
    Height                                   : 800 pixels
    Display aspect ratio                     : 2.40:1
    Frame rate mode                          : Constant
    Frame rate                               : 23.976 (24000/1001) FPS
    Color space                              : YUV
    Chroma subsampling                       : 4:2:0
    Bit depth                                : 8 bits
    Scan type                                : Progressive
    Bits/(Pixel*Frame)                       : 0.090
    Stream size                              : 3.25 GiB (74%)
    Title                                    : Operación Red Sparrow (2018) 1080p Latino
    Writing library                          : x264 core 148 r2708 86b7198
    Encoding settings                        : cabac=1 / ref=5 / deblock=1:0:0 / analyse=0x3:0x113 / me=umh / subme=8 / psy=1 / psy_rd=1.00:0.00 / mixed_ref=1 / me_range=16 / chroma_me=1 / trellis=1 / 8x8dct=1 / cqm=0 / deadzone=21,11 / fast_pskip=1 / chroma_qp_offset=-2 / threads=25 / lookahead_threads=4 / sliced_threads=0 / nr=0 / decimate=1 / interlaced=0 / bluray_compat=0 / constrained_intra=0 / bframes=3 / b_pyramid=2 / b_adapt=2 / b_bias=0 / direct=3 / weightb=1 / open_gop=0 / weightp=2 / keyint=240 / keyint_min=24 / scenecut=40 / intra_refresh=0 / rc_lookahead=50 / rc=abr / mbtree=1 / bitrate=3500 / ratetol=1.0 / qcomp=0.60 / qpmin=0 / qpmax=69 / qpstep=4 / vbv_maxrate=62500 / vbv_bufsize=78125 / nal_hrd=none / filler=0 / ip_ratio=1.40 / aq=1:1.00
    Language                                 : English
    Default                                  : Yes
    Forced                                   : No
    Color range                              : Limited
    Color primaries                          : BT.709
    Transfer characteristics                 : BT.709
    Matrix coefficients                      : BT.709
    Statistics Tags Issue                    : mkvmerge v15.0.0 ('Duel with the Devil') 64-bit 2018-05-09 22:22:39 / mkvmerge v15.0.0 ('Duel with the Devil') 64-bit 2018-05-09 22:22:39 / UTC 2018-05-09T17:12:38Z
    FromStats_BitRate                        : 3410029
    FromStats_Duration                       : 02:20:13.238000000
    FromStats_FrameCount                     : 201716
    FromStats_StreamSize                     : 3586173637

    Audio #1
    ID                                       : 2
    Format                                   : AC-3
    Format/Info                              : Audio Coding 3
    Format settings, Endianness              : Big
    Codec ID                                 : A_AC3
    Duration                                 : 2 h 20 min
    Bit rate mode                            : Constant
    Bit rate                                 : 448 kb/s
    Channel(s)                               : 6 channels
    Channel positions                        : Front: L C R, Side: L R, LFE
    Sampling rate                            : 48.0 kHz
    Frame rate                               : 31.250 FPS (1536 SPF)
    Bit depth                                : 16 bits
    Compression mode                         : Lossy
    Delay relative to video                  : -5 ms
    Stream size                              : 449 MiB (10%)
    Language                                 : Spanish
    Service kind                             : Complete Main
    Default                                  : Yes
    Forced                                   : No
    Statistics Tags Issue                    : mkvmerge v15.0.0 ('Duel with the Devil') 64-bit 2018-05-09 22:22:39 / mkvmerge v15.0.0 ('Duel with the Devil') 64-bit 2018-05-09 22:22:39 / UTC 2018-05-09T17:12:38Z
    FromStats_BitRate                        : 448000
    FromStats_Duration                       : 02:20:13.248000000
    FromStats_FrameCount                     : 262914
    FromStats_StreamSize                     : 471141888

    Audio #2
    ID                                       : 3
    Format                                   : AC-3
    Format/Info                              : Audio Coding 3
    Format settings, Endianness              : Big
    Codec ID                                 : A_AC3
    Duration                                 : 2 h 20 min
    Bit rate mode                            : Constant
    Bit rate                                 : 640 kb/s
    Channel(s)                               : 6 channels
    Channel positions                        : Front: L C R, Side: L R, LFE
    Sampling rate                            : 48.0 kHz
    Frame rate                               : 31.250 FPS (1536 SPF)
    Bit depth                                : 16 bits
    Compression mode                         : Lossy
    Delay relative to video                  : -5 ms
    Stream size                              : 642 MiB (14%)
    Language                                 : English
    Service kind                             : Complete Main
    Default                                  : No
    Forced                                   : No
    Statistics Tags Issue                    : mkvmerge v15.0.0 ('Duel with the Devil') 64-bit 2018-05-09 22:22:39 / mkvmerge v15.0.0 ('Duel with the Devil') 64-bit 2018-05-09 22:22:39 / UTC 2018-05-09T17:12:38Z
    FromStats_BitRate                        : 640000
    FromStats_Duration                       : 02:20:13.216000000
    FromStats_FrameCount                     : 262913
    FromStats_StreamSize                     : 673057280

    Text
    ID                                       : 4
    Format                                   : UTF-8
    Codec ID                                 : S_TEXT/UTF8
    Codec ID/Info                            : UTF-8 Plain Text
    Language                                 : Spanish
    Default                                  : No
    Forced                                   : No
    Statistics Tags Issue                    : mkvmerge v15.0.0 ('Duel with the Devil') 64-bit 2018-05-09 22:22:39 / mkvmerge v15.0.0 ('Duel with the Devil') 64-bit 2018-05-09 22:22:39 / UTC 2018-05-09T17:12:38Z
    FromStats_BitRate                        : 46
    FromStats_Duration                       : 02:12:20.323000000
    FromStats_FrameCount                     : 1461
    FromStats_StreamSize                     : 46638

  • Peso: 4.41 GiB

Sinopsis

Dominika Egorova (Jennifer Lawrence) es reclutada contra su voluntad para ser un “gorrión”, una seductora adiestrada del servicio de seguridad ruso. Dominika aprende a utilizar su cuerpo como arma, pero lucha por conservar su sentido de la identidad durante el deshumanizador proceso de entrenamiento. Hallando su fuerza en un sistema injusto, se revela como uno de los activos más sólidos del programa. Su primer objetivo es Nate Nash (Joel Edgerton), un funcionario de la CIA que dirige la infiltración más confidencial de la agencia en la inteligencia rusa. Los dos jóvenes agentes caen en una espiral de atracción y engaño que amenaza sus carreras, sus lealtades y la seguridad de sus respectivos países.

Ficha técnica

Video trailer de la película

Enlaces de descarga

Rip de Bluray

Descargar Operación Red Sparrow (2018) 1080p Latino




Aportes de DPeliculasHDmega la pass es:dpeliculashdmega.org Aportes de CinemaniaHD la pass es:cinemaniahdd.com

Películas relacionadas

  • Sicario (2015) Full 1080p Latino

    2015
    Sicario (2015) Full 1080p Latino

    5.0 2h 1m 2015

    En la zona fronteriza que se extiende entre Estados Unidos y México la joven Kate Macer, una idealista...

    Director: Judi Townsend

    Género: Acción

    Actores: Victor Garber

  • Fahrenheit 451 (2018) Full 1080p Latino

    2018
    Fahrenheit 451 (2018) Full 1080p Latino

    5.0 1h 36m 2018

    Michael B. Jordan y Michael Shannon protagonizan esta adaptación de HBO de la clásica novela distópica...

    Director: Ramin Bahrani

    Género: Ciencia ficción

    Actores: Tim Post

Comentarios 4
  • Mike - 10 mayo, 2018

    lo volvi a abrir y si abrieron los links de la peli gracias

  • Mr Friend - 10 mayo, 2018

    Alguien que comente si es buena la peli ???? Los comentarios deberían servir para eso. Gracias por el aporte.

    • OBviUs - 10 mayo, 2018

      Jennifer Lawrence Desnuda Abriendo Piernas. Eso debería servir.

      Saludos y de nada

      • Cliente Molesto - 10 mayo, 2018

        Para eso están las páginas porno, pajero ! Este espacio es para agradecer o comentar sobre la calidad de las películas.