Open Water 3 (2017) 1080p Latino

1.981 vistas
1 estrella2 estrellas3 estrellas4 estrellas5 estrellas (Ninguna valoración todavía)
Cargando…

Información de Open Water 3 (2017) 1080p Latino

Datos de la película

  • Calidad: 1080p
  • Audio: Español Latino AC3 2.0 DVD - Ingles AC3 5.1 BLURAY
  • Subtitulos: Español Latino SRT
  • Resolución: 1920X1080
  • Formato: MKV
  • Codec: H.264
  • Encoder: Dpelis
  • Mediainfo: Clic para Mostrar Datos Ver
  • Format                                   : Matroska
    Format version                           : Version 4 / Version 2
    File size                                : 2.28 GiB
    Duration                                 : 1 h 20 min
    Overall bit rate                         : 4 043 kb/s
    Movie name                               : dpeliculashdmega.org
    Encoded date                             : UTC 2017-11-18 17:05:21 / UTC 2017-11-18T14:44:58Z
    Writing application                      : mkvmerge v15.0.0 ('Duel with the Devil') 64-bit
    Writing library                          : libebml v1.3.5 + libmatroska v1.4.5 / Lavf57.7.2

    Video
    ID                                       : 1
    Format                                   : AVC
    Format/Info                              : Advanced Video Codec
    Format profile                           : High@L4.1
    Format settings                          : CABAC / 4 Ref Frames
    Format settings, CABAC                   : Yes
    Format settings, RefFrames               : 4 frames
    Codec ID                                 : V_MPEG4/ISO/AVC
    Duration                                 : 1 h 20 min
    Bit rate                                 : 3 131 kb/s
    Nominal bit rate                         : 3 500 kb/s
    Width                                    : 1 920 pixels
    Height                                   : 1 080 pixels
    Display aspect ratio                     : 16:9
    Frame rate mode                          : Constant
    Frame rate                               : 23.976 (24000/1001) FPS
    Color space                              : YUV
    Chroma subsampling                       : 4:2:0
    Bit depth                                : 8 bits
    Scan type                                : Progressive
    Bits/(Pixel*Frame)                       : 0.063
    Stream size                              : 1.76 GiB (77%)
    Title                                    : Open Water 3 (2017) 1080p Latino
    Writing library                          : x264 core 148 r2708 86b7198
    Encoding settings                        : cabac=1 / ref=4 / deblock=1:0:0 / analyse=0x3:0x113 / me=umh / subme=8 / psy=1 / psy_rd=1.00:0.00 / mixed_ref=1 / me_range=16 / chroma_me=1 / trellis=1 / 8x8dct=1 / cqm=0 / deadzone=21,11 / fast_pskip=1 / chroma_qp_offset=-2 / threads=34 / lookahead_threads=5 / sliced_threads=0 / nr=0 / decimate=1 / interlaced=0 / bluray_compat=0 / constrained_intra=0 / bframes=3 / b_pyramid=2 / b_adapt=2 / b_bias=0 / direct=3 / weightb=1 / open_gop=0 / weightp=2 / keyint=240 / keyint_min=24 / scenecut=40 / intra_refresh=0 / rc_lookahead=50 / rc=abr / mbtree=1 / bitrate=3500 / ratetol=1.0 / qcomp=0.60 / qpmin=0 / qpmax=69 / qpstep=4 / vbv_maxrate=62500 / vbv_bufsize=78125 / nal_hrd=none / filler=0 / ip_ratio=1.40 / aq=1:1.00
    Language                                 : English
    Default                                  : Yes
    Forced                                   : No
    Color range                              : Limited
    Color primaries                          : BT.709
    Transfer characteristics                 : BT.709
    Matrix coefficients                      : BT.709
    Statistics Tags Issue                    : mkvmerge v15.0.0 ('Duel with the Devil') 64-bit 2017-11-18 17:05:21 / mkvmerge v15.0.0 ('Duel with the Devil') 64-bit 2017-11-18 17:05:21 / UTC 2017-11-18T14:44:58Z
    FromStats_BitRate                        : 3209463
    FromStats_Duration                       : 01:20:40.336000000
    FromStats_FrameCount                     : 116052
    FromStats_StreamSize                     : 1941860434

    Audio #1
    ID                                       : 2
    Format                                   : AC-3
    Format/Info                              : Audio Coding 3
    Format settings, Endianness              : Big
    Codec ID                                 : A_AC3
    Duration                                 : 1 h 20 min
    Bit rate mode                            : Constant
    Bit rate                                 : 448 kb/s
    Channel(s)                               : 6 channels
    Channel positions                        : Front: L C R, Side: L R, LFE
    Sampling rate                            : 48.0 kHz
    Frame rate                               : 31.250 FPS (1536 SPF)
    Bit depth                                : 16 bits
    Compression mode                         : Lossy
    Delay relative to video                  : -5 ms
    Stream size                              : 259 MiB (11%)
    Title                                    : Latino-AC3
    Language                                 : Spanish
    Service kind                             : Complete Main
    Default                                  : Yes
    Forced                                   : No
    Statistics Tags Issue                    : mkvmerge v15.0.0 ('Duel with the Devil') 64-bit 2017-11-18 17:05:21 / mkvmerge v15.0.0 ('Duel with the Devil') 64-bit 2017-11-18 17:05:21 / UTC 2017-11-18T14:44:58Z
    FromStats_BitRate                        : 448000
    FromStats_Duration                       : 01:20:35.808000000
    FromStats_FrameCount                     : 151119
    FromStats_StreamSize                     : 270805248

    Audio #2
    ID                                       : 3
    Format                                   : AC-3
    Format/Info                              : Audio Coding 3
    Format settings, Endianness              : Big
    Codec ID                                 : A_AC3
    Duration                                 : 1 h 20 min
    Bit rate mode                            : Constant
    Bit rate                                 : 384 kb/s
    Channel(s)                               : 6 channels
    Channel positions                        : Front: L C R, Side: L R, LFE
    Sampling rate                            : 48.0 kHz
    Frame rate                               : 31.250 FPS (1536 SPF)
    Bit depth                                : 16 bits
    Compression mode                         : Lossy
    Delay relative to video                  : -5 ms
    Stream size                              : 222 MiB (9%)
    Title                                    : Ingles-AC3
    Language                                 : English
    Service kind                             : Complete Main
    Default                                  : No
    Forced                                   : No
    Statistics Tags Issue                    : mkvmerge v15.0.0 ('Duel with the Devil') 64-bit 2017-11-18 17:05:21 / mkvmerge v15.0.0 ('Duel with the Devil') 64-bit 2017-11-18 17:05:21 / UTC 2017-11-18T14:44:58Z
    FromStats_BitRate                        : 384000
    FromStats_Duration                       : 01:20:40.320000000
    FromStats_FrameCount                     : 151260
    FromStats_StreamSize                     : 232335360

    Text
    ID                                       : 4
    Format                                   : UTF-8
    Codec ID                                 : S_TEXT/UTF8
    Codec ID/Info                            : UTF-8 Plain Text
    Language                                 : Spanish
    Default                                  : Yes
    Forced                                   : No
    Statistics Tags Issue                    : mkvmerge v15.0.0 ('Duel with the Devil') 64-bit 2017-11-18 17:05:21 / mkvmerge v15.0.0 ('Duel with the Devil') 64-bit 2017-11-18 17:05:21 / UTC 2017-11-18T14:44:58Z
    FromStats_BitRate                        : 59
    FromStats_Duration                       : 01:19:41.865000000
    FromStats_FrameCount                     : 1072
    FromStats_StreamSize                     : 35456

    Menu
    00:00:00.000                             : :Chapter 1
    00:04:34.149                             : :Chapter 2
    00:09:04.294                             : :Chapter 3
    00:12:17.695                             : :Chapter 4
    00:17:32.009                             : :Chapter 5
    00:22:25.094                             : :Chapter 6
    00:27:29.439                             : :Chapter 7
    00:32:06.675                             : :Chapter 8
    00:35:51.900                             : :Chapter 9
    00:40:26.799                             : :Chapter 10
    00:44:23.870                             : :Chapter 11
    00:49:00.521                             : :Chapter 12
    00:54:15.836                             : :Chapter 13
    01:01:31.521                             : :Chapter 14
    01:05:55.243                             : :Chapter 15
    01:09:00.928                             : :Chapter 16

  • Peso: 2.28 GiB

Sinopsis

Tres amigos viajan a Australia con la intención de grabar un vídeo buceando entre tiburones, que les sirva como audición para un concurso de actividades extremas. Pero algo sale terriblemente mal, y la grabación se convierte en un estremecedor diario de supervivencia… y de muerte.

Ficha técnica

  • Titulo original: Cage Dive
  • Fecha de lanzamiento: 11-08-2017 (Australia)
  • Director: Gerald Rascionato
  • Género: Drama, Suspense, Terror
  • Puntuación: 0.0 0 votos
  • Duración:
    1 h 20 min

Video trailer de la película

Enlaces de descarga

Rip de Bluray

Descargar Open Water 3 (2017) 1080p Latino




Aportes de DPeliculasHDmega la pass es:dpeliculashdmega.org Aportes de CinemaniaHD la pass es:cinemaniahdd.com
Guardado en : Drama , Suspense , Terror

Películas relacionadas

  • Isle of the Dead (2016) WEB-DL 1080p Latino

    2016
    Isle of the Dead (2016) WEB-DL 1080p Latino

    0.0 1 h 27 min 2016

    Extraños atrapados en una isla aislada luchan por sobrevivir contra hordas de muertos.     Latino...

    Director: Nick Lyon

    Género: Terror

    Actores: Todd Cattell

  • Tully (2018) 1080p Latino

    2018
    Tully (2018) 1080p Latino

    0.0 1 h 35 min 2018

    La historia de una mujer con tres hijos que, incapaz de lidiar con su bebé recién nacido, contrata...

    Director: Jason Reitman

    Género: Comedia

    Actores: Stormy Ent

  • Si solo pudiera imaginar (2018) Full 1080p Latino

    2018
    Si solo pudiera imaginar (2018) Full 1080p Latino

    5.0 1 h 50 min 2018

    La historia real de la aclamada canción "I Can Only Imagine", la canción cristiana contemporánea más...

    Director: Jon Erwin

    Género: Drama

    Actores: Trace Adkins

  • El Justiciero (2014) Full 1080p Latino

    2014
    El Justiciero (2014) Full 1080p Latino

    4.0 2 h 12 min 2014

    Robert McCall, un antiguo agente de la CIA que lleva ahora una vida tranquila, abandona su retiro para...

    Director: Deirdre Horgan

    Género: Acción

    Actores: Yan Dron

Comentarios 0