Oblivion (2013) Full 1080p Latino | CinemaniaHD - Descargar Peliculas 1080p Mega Google Drive

Oblivion (2013) Full 1080p Latino

931 vistas
1 estrella2 estrellas3 estrellas4 estrellas5 estrellas (Ninguna valoración todavía)
Cargando…

Información de Oblivion (2013) Full 1080p Latino

Datos de la película

  • Calidad: Full 1080p
  • Audio: Español Latino DTS 5.1 BLURAY - Ingles DTS 5.1 BLURAY
  • Subtitulos: Español Latino PGS - Ingles PGS
  • Resolución: 1920X1080p
  • Formato: MKV
  • Codec: H.264
  • Encoder: Dracarys
  • Mediainfo: Clic para Mostrar Datos Ver
  • Format                                   : Matroska
    Format version                           : Version 4 / Version 2
    File size                                : 5.66 GiB
    Duration                                 : 2 h 4 min
    Overall bit rate                         : 6 501 kb/s
    Movie name                               : CinemaniaHDD.com
    Encoded date                             : UTC 2018-03-15 02:29:13 / UTC 2018-03-14T07:21:43Z
    Writing application                      : mkvmerge v15.0.0 ('Duel with the Devil') 64-bit
    Writing library                          : libebml v1.3.5 + libmatroska v1.4.5 / Lavf57.7.2

    Video
    ID                                       : 1
    Format                                   : AVC
    Format/Info                              : Advanced Video Codec
    Format profile                           : High@L4.1
    Format settings                          : CABAC / 4 Ref Frames
    Format settings, CABAC                   : Yes
    Format settings, RefFrames               : 4 frames
    Codec ID                                 : V_MPEG4/ISO/AVC
    Duration                                 : 2 h 4 min
    Bit rate                                 : 4 095 kb/s
    Width                                    : 1 920 pixels
    Height                                   : 1 080 pixels
    Display aspect ratio                     : 16:9
    Frame rate mode                          : Constant
    Frame rate                               : 23.976 (24000/1001) FPS
    Color space                              : YUV
    Chroma subsampling                       : 4:2:0
    Bit depth                                : 8 bits
    Scan type                                : Progressive
    Bits/(Pixel*Frame)                       : 0.082
    Stream size                              : 3.57 GiB (63%)
    Title                                    : Oblivion (2013) Full 1080p Latino
    Writing library                          : x264 core 148 r2708 86b7198
    Encoding settings                        : cabac=1 / ref=4 / deblock=1:0:0 / analyse=0x3:0x133 / me=esa / subme=9 / psy=1 / psy_rd=1.00:0.00 / mixed_ref=1 / me_range=16 / chroma_me=1 / trellis=2 / 8x8dct=1 / cqm=0 / deadzone=21,11 / fast_pskip=1 / chroma_qp_offset=-2 / threads=34 / lookahead_threads=2 / sliced_threads=0 / nr=0 / decimate=1 / interlaced=0 / bluray_compat=0 / constrained_intra=0 / bframes=3 / b_pyramid=2 / b_adapt=2 / b_bias=0 / direct=3 / weightb=1 / open_gop=0 / weightp=2 / keyint=240 / keyint_min=24 / scenecut=40 / intra_refresh=0 / rc_lookahead=60 / rc=crf / mbtree=1 / crf=20.0 / qcomp=0.60 / qpmin=0 / qpmax=69 / qpstep=4 / vbv_maxrate=62500 / vbv_bufsize=78125 / crf_max=0.0 / nal_hrd=none / filler=0 / ip_ratio=1.40 / aq=1:1.00
    Language                                 : English
    Default                                  : Yes
    Forced                                   : No
    Color range                              : Limited
    Color primaries                          : BT.709
    Transfer characteristics                 : BT.709
    Matrix coefficients                      : BT.709
    Statistics Tags Issue                    : mkvmerge v15.0.0 ('Duel with the Devil') 64-bit 2018-03-15 02:29:13 / mkvmerge v15.0.0 ('Duel with the Devil') 64-bit 2018-03-15 02:29:13 / UTC 2018-03-14T07:21:43Z
    FromStats_BitRate                        : 4207973
    FromStats_Duration                       : 02:04:42.308000000
    FromStats_FrameCount                     : 179396
    FromStats_StreamSize                     : 3935669418

    Audio #1
    ID                                       : 2
    Format                                   : DTS
    Format/Info                              : Digital Theater Systems
    Mode                                     : 16
    Format settings, Endianness              : Big
    Codec ID                                 : A_DTS
    Duration                                 : 2 h 4 min
    Bit rate mode                            : Constant
    Bit rate                                 : 768 kb/s
    Channel(s)                               : 6 channels
    Channel positions                        : Front: L C R, Side: L R, LFE
    Sampling rate                            : 48.0 kHz
    Frame rate                               : 93.750 FPS (512 SPF)
    Bit depth                                : 24 bits
    Compression mode                         : Lossy
    Stream size                              : 685 MiB (12%)
    Language                                 : Spanish
    Default                                  : Yes
    Forced                                   : No
    Statistics Tags Issue                    : mkvmerge v15.0.0 ('Duel with the Devil') 64-bit 2018-03-15 02:29:13 / mkvmerge v15.0.0 ('Duel with the Devil') 64-bit 2018-03-15 02:29:13 / UTC 2018-03-14T07:21:43Z
    FromStats_BitRate                        : 768000
    FromStats_Duration                       : 02:04:42.304000000
    FromStats_FrameCount                     : 701466
    FromStats_StreamSize                     : 718301184

    Audio #2
    ID                                       : 3
    Format                                   : DTS
    Format/Info                              : Digital Theater Systems
    Mode                                     : 16
    Format settings, Endianness              : Big
    Codec ID                                 : A_DTS
    Duration                                 : 2 h 4 min
    Bit rate mode                            : Constant
    Bit rate                                 : 1 509 kb/s
    Channel(s)                               : 6 channels
    Channel positions                        : Front: L C R, Side: L R, LFE
    Sampling rate                            : 48.0 kHz
    Frame rate                               : 93.750 FPS (512 SPF)
    Bit depth                                : 24 bits
    Compression mode                         : Lossy
    Stream size                              : 1.31 GiB (23%)
    Language                                 : English
    Default                                  : No
    Forced                                   : No
    Statistics Tags Issue                    : mkvmerge v15.0.0 ('Duel with the Devil') 64-bit 2018-03-15 02:29:13 / mkvmerge v15.0.0 ('Duel with the Devil') 64-bit 2018-03-15 02:29:13 / UTC 2018-03-14T07:21:43Z
    FromStats_BitRate                        : 1509000
    FromStats_Duration                       : 02:04:42.304000000
    FromStats_FrameCount                     : 701466
    FromStats_StreamSize                     : 1411349592

    Text #1
    ID                                       : 4
    Format                                   : PGS
    Muxing mode                              : zlib
    Codec ID                                 : S_HDMV/PGS
    Codec ID/Info                            : Picture based subtitle format used on BDs/HD-DVDs
    Title                                    : Forzados-PGS
    Language                                 : Spanish
    Default                                  : No
    Forced                                   : No
    Statistics Tags Issue                    : mkvmerge v15.0.0 ('Duel with the Devil') 64-bit 2018-03-15 02:29:13 / mkvmerge v15.0.0 ('Duel with the Devil') 64-bit 2018-03-15 02:29:13 / UTC 2018-03-14T07:21:43Z
    FromStats_BitRate                        : 172
    FromStats_Duration                       : 01:48:00.307000000
    FromStats_FrameCount                     : 30
    FromStats_StreamSize                     : 139560

    Text #2
    ID                                       : 5
    Format                                   : PGS
    Muxing mode                              : zlib
    Codec ID                                 : S_HDMV/PGS
    Codec ID/Info                            : Picture based subtitle format used on BDs/HD-DVDs
    Title                                    : Completos-PGS
    Language                                 : Spanish
    Default                                  : No
    Forced                                   : No
    Statistics Tags Issue                    : mkvmerge v15.0.0 ('Duel with the Devil') 64-bit 2018-03-15 02:29:13 / mkvmerge v15.0.0 ('Duel with the Devil') 64-bit 2018-03-15 02:29:13 / UTC 2018-03-14T07:21:43Z
    FromStats_BitRate                        : 19598
    FromStats_Duration                       : 01:57:36.216000000
    FromStats_FrameCount                     : 1902
    FromStats_StreamSize                     : 17286310

    Text #3
    ID                                       : 6
    Format                                   : PGS
    Muxing mode                              : zlib
    Codec ID                                 : S_HDMV/PGS
    Codec ID/Info                            : Picture based subtitle format used on BDs/HD-DVDs
    Title                                    : Ingles-PGS
    Language                                 : English
    Default                                  : No
    Forced                                   : No
    Statistics Tags Issue                    : mkvmerge v15.0.0 ('Duel with the Devil') 64-bit 2018-03-15 02:29:13 / mkvmerge v15.0.0 ('Duel with the Devil') 64-bit 2018-03-15 02:29:13 / UTC 2018-03-14T07:21:43Z
    FromStats_BitRate                        : 21821
    FromStats_Duration                       : 01:57:36.299000000
    FromStats_FrameCount                     : 2052
    FromStats_StreamSize                     : 19247802

    Menu
    00:00:00.000                             : :Chapter 1
    00:04:31.354                             : :Chapter 2
    00:12:51.813                             : :Chapter 3
    00:21:25.284                             : :Chapter 4
    00:27:20.139                             : :Chapter 5
    00:35:30.337                             : :Chapter 6
    00:40:06.779                             : :Chapter 7
    00:46:16.023                             : :Chapter 8
    00:52:22.181                             : :Chapter 9
    01:01:59.716                             : :Chapter 10
    01:07:59.409                             : :Chapter 11
    01:16:25.831                             : :Chapter 12
    01:22:08.173                             : :Chapter 13
    01:25:31.752                             : :Chapter 14
    01:30:22.542                             : :Chapter 15
    01:36:30.368                             : :Chapter 16
    01:40:29.106                             : :Chapter 17
    01:46:27.423                             : :Chapter 18
    01:53:05.320                             : :Chapter 19
    01:58:23.847                             : :Chapter 20

  • Peso: 5.66 GiB

Sinopsis

Jack Harper es uno de los últimos técnicos de reparación de drones que permanece en la Tierra. Parte de una operación masiva para extraer recursos vitales después de décadas de guerra contra una amenaza terrorífica conocida como los Scavs, la misión de Jack está casi completada. Su existencia empieza a desmoronarse cuando rescata a una hermosa desconocida de una nave espacial caída. Su llegada desencadena una serie de acontecimientos que le llevan a cuestionarse todo lo conoce y pone el destino de la humanidad en sus manos.

Ficha técnica

Video trailer de la película

Enlaces de descarga

Rip de Bluray

Descargar Oblivion (2013) Full 1080p Latino




Aportes de DPeliculasHDmega la pass es:dpeliculashdmega.org Aportes de CinemaniaHD la pass es:cinemaniahdd.com

Películas relacionadas

  • Ralph El Demoledor (2012) Full 1080p Latino

    2012
    Ralph El Demoledor (2012) Full 1080p Latino

    0.0 1h 41m 2012

    Durante décadas, Ralph ha vivido a la sombra de Repara-Félix Jr., el chico bueno de su videojuego....

    Director: Rob Dressel

    Género: Animación

    Actores: Will Deters

  • La leyenda del gigante de la montaña (2018) 1080p Latino

    2017
    La leyenda del gigante de la montaña (2018) 1080p Latino

    0.0 2h 0m 2017

    Espen "Ash Lad", un pobre hijo de granjero, se embarca en una peligrosa aventura con sus hermanos para...

    Director: Mikkel Brænne Sandemose

    Género: 1080p Portada Negra

    Actores: Vebjørn Enger

  • La jungla (2017) 1080p Latino

    2017
    La jungla (2017) 1080p Latino

    0.0 1h 55m 2017

    Cuenta la historia real de Yossi Ghinsberg, un joven aventurero que vivió para escribir un bestseller...

    Director: Greg McLean

    Género: 1080p Portada Negra

    Actores: Yasmin Kassim

  • Big Fish & Begonia (2018) NF 1080p Latino

    2016
    Big Fish & Begonia (2018) NF 1080p Latino

    0.0 1h 30m 2016

    En un universo más allá del nuestro, Chun celebra su decimosexto aniversario cumpliendo una tradición...

    Director: Zhang Chun

    Género: Animación

    Actores: Zhang Jie

Comentarios 1
  • ocpgaiden - 22 marzo, 2018

    gracias por la movie