No me las toquen (2018) Full 1080p Latino

995 vistas
1 estrella2 estrellas3 estrellas4 estrellas5 estrellas (3 votos, promedio: 3,33 de 5)
Cargando…

Información de No me las toquen (2018) Full 1080p Latino

Datos de la película

  • Calidad: Full 1080p
  • Audio: Español Latino DTS 5.1 BLURAY - Ingles DTS 5.1 BLURAY
  • Subtitulos: Español Latino PGS - Ingles PGS
  • Resolución: 1920x1080p
  • Formato: MKV
  • Codec: H.264
  • Encoder: Dracarys
  • Mediainfo: Clic para Mostrar Datos Ver
  • Format                                   : Matroska
    Format version                           : Version 4 / Version 2
    File size                                : 4.16 GiB
    Duration                                 : 1 h 41 min
    Overall bit rate                         : 5 845 kb/s
    Movie name                               : CinemaniaHDD.net
    Encoded date                             : UTC 2018-07-09 03:26:43 / UTC 2018-07-01T02:54:31Z
    Writing application                      : mkvmerge v15.0.0 ('Duel with the Devil') 64-bit
    Writing library                          : libebml v1.3.5 + libmatroska v1.4.5 / Lavf57.7.2

    Video
    ID                                       : 1
    Format                                   : AVC
    Format/Info                              : Advanced Video Codec
    Format profile                           : High@L4.1
    Format settings                          : CABAC / 4 Ref Frames
    Format settings, CABAC                   : Yes
    Format settings, RefFrames               : 4 frames
    Codec ID                                 : V_MPEG4/ISO/AVC
    Duration                                 : 1 h 41 min
    Bit rate                                 : 3 452 kb/s
    Width                                    : 1 920 pixels
    Height                                   : 1 080 pixels
    Display aspect ratio                     : 16:9
    Frame rate mode                          : Constant
    Frame rate                               : 23.976 (24000/1001) FPS
    Color space                              : YUV
    Chroma subsampling                       : 4:2:0
    Bit depth                                : 8 bits
    Scan type                                : Progressive
    Bits/(Pixel*Frame)                       : 0.069
    Stream size                              : 2.46 GiB (59%)
    Title                                    : No me las toquen (2018) Full 1080p Latino
    Writing library                          : x264 core 148 r2708 86b7198
    Encoding settings                        : cabac=1 / ref=4 / deblock=1:0:0 / analyse=0x3:0x133 / me=esa / subme=10 / psy=1 / psy_rd=1.00:0.00 / mixed_ref=1 / me_range=24 / chroma_me=1 / trellis=2 / 8x8dct=1 / cqm=0 / deadzone=21,11 / fast_pskip=1 / chroma_qp_offset=-2 / threads=34 / lookahead_threads=5 / sliced_threads=0 / nr=0 / decimate=1 / interlaced=0 / bluray_compat=0 / constrained_intra=0 / bframes=8 / b_pyramid=2 / b_adapt=2 / b_bias=0 / direct=3 / weightb=1 / open_gop=0 / weightp=2 / keyint=240 / keyint_min=24 / scenecut=40 / intra_refresh=0 / rc_lookahead=60 / rc=crf / mbtree=1 / crf=20.0 / qcomp=0.60 / qpmin=0 / qpmax=69 / qpstep=4 / vbv_maxrate=62500 / vbv_bufsize=78125 / crf_max=0.0 / nal_hrd=none / filler=0 / ip_ratio=1.40 / aq=1:1.00
    Language                                 : English
    Default                                  : Yes
    Forced                                   : No
    Color range                              : Limited
    Color primaries                          : BT.709
    Transfer characteristics                 : BT.709
    Matrix coefficients                      : BT.709
    Statistics Tags Issue                    : mkvmerge v15.0.0 ('Duel with the Devil') 64-bit 2018-07-09 03:26:43 / mkvmerge v15.0.0 ('Duel with the Devil') 64-bit 2018-07-09 03:26:43 / UTC 2018-07-01T02:54:31Z
    FromStats_BitRate                        : 3531710
    FromStats_Duration                       : 01:41:56.944000000
    FromStats_FrameCount                     : 146660
    FromStats_StreamSize                     : 2700409293

    Audio #1
    ID                                       : 2
    Format                                   : DTS
    Format/Info                              : Digital Theater Systems
    Mode                                     : 16
    Format settings, Endianness              : Big
    Codec ID                                 : A_DTS
    Duration                                 : 1 h 41 min
    Bit rate mode                            : Constant
    Bit rate                                 : 768 kb/s
    Channel(s)                               : 6 channels
    Channel positions                        : Front: L C R, Side: L R, LFE
    Sampling rate                            : 48.0 kHz
    Frame rate                               : 93.750 FPS (512 SPF)
    Bit depth                                : 24 bits
    Compression mode                         : Lossy
    Stream size                              : 560 MiB (13%)
    Language                                 : Spanish
    Default                                  : Yes
    Forced                                   : No
    Statistics Tags Issue                    : mkvmerge v15.0.0 ('Duel with the Devil') 64-bit 2018-07-09 03:26:43 / mkvmerge v15.0.0 ('Duel with the Devil') 64-bit 2018-07-09 03:26:43 / UTC 2018-07-01T02:54:31Z
    FromStats_BitRate                        : 767999
    FromStats_Duration                       : 01:41:56.939000000
    FromStats_FrameCount                     : 573463
    FromStats_StreamSize                     : 587226112

    Audio #2
    ID                                       : 3
    Format                                   : DTS
    Format/Info                              : Digital Theater Systems
    Mode                                     : 16
    Format settings, Endianness              : Big
    Codec ID                                 : A_DTS
    Duration                                 : 1 h 41 min
    Bit rate mode                            : Constant
    Bit rate                                 : 1 509 kb/s
    Channel(s)                               : 6 channels
    Channel positions                        : Front: L C R, Side: L R, LFE
    Sampling rate                            : 48.0 kHz
    Frame rate                               : 93.750 FPS (512 SPF)
    Bit depth                                : 24 bits
    Compression mode                         : Lossy
    Stream size                              : 1.07 GiB (26%)
    Language                                 : English
    Default                                  : No
    Forced                                   : No
    Statistics Tags Issue                    : mkvmerge v15.0.0 ('Duel with the Devil') 64-bit 2018-07-09 03:26:43 / mkvmerge v15.0.0 ('Duel with the Devil') 64-bit 2018-07-09 03:26:43 / UTC 2018-07-01T02:54:31Z
    FromStats_BitRate                        : 1508999
    FromStats_Duration                       : 01:41:56.939000000
    FromStats_FrameCount                     : 573463
    FromStats_StreamSize                     : 1153807556

    Text #1
    ID                                       : 4
    Format                                   : PGS
    Muxing mode                              : zlib
    Codec ID                                 : S_HDMV/PGS
    Codec ID/Info                            : Picture based subtitle format used on BDs/HD-DVDs
    Language                                 : English
    Default                                  : No
    Forced                                   : No
    Statistics Tags Issue                    : mkvmerge v15.0.0 ('Duel with the Devil') 64-bit 2018-07-09 03:26:43 / mkvmerge v15.0.0 ('Duel with the Devil') 64-bit 2018-07-09 03:26:43 / UTC 2018-07-01T02:54:31Z
    FromStats_BitRate                        : 68302
    FromStats_Duration                       : 01:34:16.234000000
    FromStats_FrameCount                     : 4466
    FromStats_StreamSize                     : 48292217

    Text #2
    ID                                       : 5
    Format                                   : PGS
    Muxing mode                              : zlib
    Codec ID                                 : S_HDMV/PGS
    Codec ID/Info                            : Picture based subtitle format used on BDs/HD-DVDs
    Language                                 : Spanish
    Default                                  : No
    Forced                                   : No
    Statistics Tags Issue                    : mkvmerge v15.0.0 ('Duel with the Devil') 64-bit 2018-07-09 03:26:43 / mkvmerge v15.0.0 ('Duel with the Devil') 64-bit 2018-07-09 03:26:43 / UTC 2018-07-01T02:54:31Z
    FromStats_BitRate                        : 49387
    FromStats_Duration                       : 01:41:08.103000000
    FromStats_FrameCount                     : 3334
    FromStats_StreamSize                     : 37461057

    Text #3
    ID                                       : 6
    Format                                   : PGS
    Muxing mode                              : zlib
    Codec ID                                 : S_HDMV/PGS
    Codec ID/Info                            : Picture based subtitle format used on BDs/HD-DVDs
    Title                                    : Forzados
    Language                                 : Spanish
    Default                                  : Yes
    Forced                                   : Yes
    Statistics Tags Issue                    : mkvmerge v15.0.0 ('Duel with the Devil') 64-bit 2018-07-09 03:26:43 / mkvmerge v15.0.0 ('Duel with the Devil') 64-bit 2018-07-09 03:26:43 / UTC 2018-07-01T02:54:31Z
    FromStats_BitRate                        : 773
    FromStats_Duration                       : 01:40:21.432000000
    FromStats_FrameCount                     : 66
    FromStats_StreamSize                     : 581989

    Menu
    00:00:00.000                             : :Chapter 1
    00:02:50.087                             : :Chapter 2
    00:10:02.143                             : :Chapter 3
    00:14:50.139                             : :Chapter 4
    00:22:11.956                             : :Chapter 5
    00:26:09.109                             : :Chapter 6
    00:32:02.963                             : :Chapter 7
    00:35:18.450                             : :Chapter 8
    00:40:06.529                             : :Chapter 9
    00:44:33.546                             : :Chapter 10
    00:49:58.245                             : :Chapter 11
    00:55:14.770                             : :Chapter 12
    00:59:26.521                             : :Chapter 13
    01:05:34.472                             : :Chapter 14
    01:10:20.633                             : :Chapter 15
    01:15:47.001                             : :Chapter 16
    01:22:48.213                             : :Chapter 17
    01:26:38.819                             : :Chapter 18
    01:31:15.971                             : :Chapter 19
    01:34:08.560                             : :Chapter 20

  • Peso: 4.16 GiB

Sinopsis

Cuando tres padres descubren el pacto de sus hijas para perder su virginidad en la fiesta de graduación, lanzan una operación encubierta de una sola noche para evitar que los adolescentes cierren el trato.

Ficha técnica

  • Titulo original: Blockers
  • Fecha de lanzamiento: 14-03-2018 (United States of America)
  • Director: Kay Cannon
  • Género: Comedia, FULL 1080p Plateadas
  • Puntuación: 3.3 3 votos
  • Duración:
    1 h 41 min

Video trailer de la película

Enlaces de descarga

Rip de Bluray

Descargar No me las toquen (2018) Full 1080p Latino




Aportes de DPeliculasHDmega la pass es:dpeliculashdmega.org Aportes de CinemaniaHD la pass es:cinemaniahdd.com
Guardado en : Comedia , FULL 1080p Plateadas

Películas relacionadas

  • ¡Hombre al agua! (2018) 1080p Latino

    2018
    ¡Hombre al agua! (2018) 1080p Latino

    5.0 1 h 52 min 2018

    Kate es una madre soltera, trabajadora, madre de tres hijas, contratada para limpiar un yate de lujo...

    Director: Rob Greenberg

    Género: 1080p Portada Negra

    Actores: Toby Hargrave

  • El alma de la fiesta (2018) 1080p Latino

    2018
    El alma de la fiesta (2018) 1080p Latino

    0.0 1 h 44 min 2018

    Después de haber sido abandonada por su esposo, Deanna, ama de casa, decide darle un giro a su vida...

    Director: Ben Falcone

    Género: Comedia

    Actores: Yani Simone

  • Tully (2018) 1080p Latino

    2018
    Tully (2018) 1080p Latino

    0.0 1 h 35 min 2018

    La historia de una mujer con tres hijos que, incapaz de lidiar con su bebé recién nacido, contrata...

    Director: Jason Reitman

    Género: Comedia

    Actores: Stormy Ent

  • Si solo pudiera imaginar (2018) Full 1080p Latino

    2018
    Si solo pudiera imaginar (2018) Full 1080p Latino

    5.0 1 h 50 min 2018

    La historia real de la aclamada canción "I Can Only Imagine", la canción cristiana contemporánea más...

    Director: Jon Erwin

    Género: Drama

    Actores: Trace Adkins

  • El padre del año (2018) WEB-DL 1080p Latino

    2018
    El padre del año (2018) WEB-DL 1080p Latino

    0.0 1h 34m 2018

    Dos universitarios recién graduados discuten borrachos sobre quién de sus padres ganaría una pelea....

    Director: Tyler Spindel

    Género: Comedia

    Actores: Ralph Ayala

Comentarios 0