New York, New York (1977) Full 1080p Latino

483 vistas
1 estrella2 estrellas3 estrellas4 estrellas5 estrellas (1 votos, promedio: 1,00 de 5)
Cargando…

Información de New York, New York (1977) Full 1080p Latino

Datos de la película

  • Calidad: Full 1080p
  • Audio: Español Latino AC3 2.0 BLURAY - Ingles DTS 5.1 BLURAY
  • Subtitulos: Español Latino PGS - Ingles PGS
  • Resolución: 1920x1080p
  • Formato: MKV
  • Codec: H.264
  • Encoder: Dracarys
  • Mediainfo: Clic para Mostrar Datos Ver
  • Format                                   : Matroska
    Format version                           : Version 4 / Version 2
    File size                                : 19.5 GiB
    Duration                                 : 2 h 43 min
    Overall bit rate                         : 17.1 Mb/s
    Movie name                               : CinemaniaHDD.net
    Encoded date                             : UTC 2018-06-07 21:18:49 / UTC 2018-06-07T03:35:14Z
    Writing application                      : mkvmerge v15.0.0 ('Duel with the Devil') 64-bit
    Writing library                          : libebml v1.3.5 + libmatroska v1.4.5 / Lavf57.7.2

    Video
    ID                                       : 1
    Format                                   : AVC
    Format/Info                              : Advanced Video Codec
    Format profile                           : High@L4.1
    Format settings                          : CABAC / 4 Ref Frames
    Format settings, CABAC                   : Yes
    Format settings, RefFrames               : 4 frames
    Codec ID                                 : V_MPEG4/ISO/AVC
    Duration                                 : 2 h 43 min
    Bit rate                                 : 15.0 Mb/s
    Width                                    : 1 920 pixels
    Height                                   : 1 080 pixels
    Display aspect ratio                     : 16:9
    Frame rate mode                          : Constant
    Frame rate                               : 23.976 (24000/1001) FPS
    Color space                              : YUV
    Chroma subsampling                       : 4:2:0
    Bit depth                                : 8 bits
    Scan type                                : Progressive
    Bits/(Pixel*Frame)                       : 0.302
    Stream size                              : 17.1 GiB (88%)
    Title                                    : New York, New York (1977) Full 1080p Latino
    Writing library                          : x264 core 148 r2708 86b7198
    Encoding settings                        : cabac=1 / ref=4 / deblock=1:0:0 / analyse=0x3:0x133 / me=esa / subme=9 / psy=1 / psy_rd=1.00:0.00 / mixed_ref=1 / me_range=16 / chroma_me=1 / trellis=2 / 8x8dct=1 / cqm=0 / deadzone=21,11 / fast_pskip=1 / chroma_qp_offset=-2 / threads=34 / lookahead_threads=2 / sliced_threads=0 / nr=0 / decimate=1 / interlaced=0 / bluray_compat=0 / constrained_intra=0 / bframes=3 / b_pyramid=2 / b_adapt=2 / b_bias=0 / direct=3 / weightb=1 / open_gop=0 / weightp=2 / keyint=240 / keyint_min=24 / scenecut=40 / intra_refresh=0 / rc_lookahead=60 / rc=crf / mbtree=1 / crf=20.0 / qcomp=0.60 / qpmin=0 / qpmax=69 / qpstep=4 / vbv_maxrate=62500 / vbv_bufsize=78125 / crf_max=0.0 / nal_hrd=none / filler=0 / ip_ratio=1.40 / aq=1:1.00
    Language                                 : English
    Default                                  : Yes
    Forced                                   : No
    Color range                              : Limited
    Color primaries                          : BT.709
    Transfer characteristics                 : BT.709
    Matrix coefficients                      : BT.709
    Statistics Tags Issue                    : mkvmerge v15.0.0 ('Duel with the Devil') 64-bit 2018-06-07 21:18:49 / mkvmerge v15.0.0 ('Duel with the Devil') 64-bit 2018-06-07 21:18:49 / UTC 2018-06-07T03:35:14Z
    FromStats_BitRate                        : 15308737
    FromStats_Duration                       : 02:43:10.865000000
    FromStats_FrameCount                     : 234746
    FromStats_StreamSize                     : 18735722990

    Audio #1
    ID                                       : 2
    Format                                   : AC-3
    Format/Info                              : Audio Coding 3
    Format settings, Endianness              : Big
    Codec ID                                 : A_AC3
    Duration                                 : 2 h 43 min
    Bit rate mode                            : Constant
    Bit rate                                 : 256 kb/s
    Channel(s)                               : 2 channels
    Channel positions                        : Front: L R
    Sampling rate                            : 48.0 kHz
    Frame rate                               : 31.250 FPS (1536 SPF)
    Bit depth                                : 16 bits
    Compression mode                         : Lossy
    Stream size                              : 299 MiB (1%)
    Language                                 : Spanish
    Service kind                             : Complete Main
    Default                                  : Yes
    Forced                                   : No
    Statistics Tags Issue                    : mkvmerge v15.0.0 ('Duel with the Devil') 64-bit 2018-06-07 21:18:49 / mkvmerge v15.0.0 ('Duel with the Devil') 64-bit 2018-06-07 21:18:49 / UTC 2018-06-07T03:35:14Z
    FromStats_BitRate                        : 256000
    FromStats_Duration                       : 02:43:10.912000000
    FromStats_FrameCount                     : 305966
    FromStats_StreamSize                     : 313309184

    Audio #2
    ID                                       : 3
    Format                                   : DTS
    Format/Info                              : Digital Theater Systems
    Mode                                     : 16
    Format settings, Endianness              : Big
    Codec ID                                 : A_DTS
    Duration                                 : 2 h 43 min
    Bit rate mode                            : Constant
    Bit rate                                 : 1 509 kb/s
    Channel(s)                               : 6 channels
    Channel positions                        : Front: L C R, Side: L R, LFE
    Sampling rate                            : 48.0 kHz
    Frame rate                               : 93.750 FPS (512 SPF)
    Bit depth                                : 24 bits
    Compression mode                         : Lossy
    Stream size                              : 1.72 GiB (9%)
    Language                                 : English
    Default                                  : No
    Forced                                   : No
    Statistics Tags Issue                    : mkvmerge v15.0.0 ('Duel with the Devil') 64-bit 2018-06-07 21:18:49 / mkvmerge v15.0.0 ('Duel with the Devil') 64-bit 2018-06-07 21:18:49 / UTC 2018-06-07T03:35:14Z
    FromStats_BitRate                        : 1508999
    FromStats_Duration                       : 02:43:10.891000000
    FromStats_FrameCount                     : 917896
    FromStats_StreamSize                     : 1846806752

    Text #1
    ID                                       : 4
    Format                                   : PGS
    Muxing mode                              : zlib
    Codec ID                                 : S_HDMV/PGS
    Codec ID/Info                            : Picture based subtitle format used on BDs/HD-DVDs
    Language                                 : English
    Default                                  : No
    Forced                                   : No
    Statistics Tags Issue                    : mkvmerge v15.0.0 ('Duel with the Devil') 64-bit 2018-06-07 21:18:49 / mkvmerge v15.0.0 ('Duel with the Devil') 64-bit 2018-06-07 21:18:49 / UTC 2018-06-07T03:35:14Z
    FromStats_BitRate                        : 36044
    FromStats_Duration                       : 02:37:27.772000000
    FromStats_FrameCount                     : 3514
    FromStats_StreamSize                     : 42567944

    Text #2
    ID                                       : 5
    Format                                   : PGS
    Muxing mode                              : zlib
    Codec ID                                 : S_HDMV/PGS
    Codec ID/Info                            : Picture based subtitle format used on BDs/HD-DVDs
    Language                                 : Spanish
    Default                                  : No
    Forced                                   : No
    Statistics Tags Issue                    : mkvmerge v15.0.0 ('Duel with the Devil') 64-bit 2018-06-07 21:18:49 / mkvmerge v15.0.0 ('Duel with the Devil') 64-bit 2018-06-07 21:18:49 / UTC 2018-06-07T03:35:14Z
    FromStats_BitRate                        : 32733
    FromStats_Duration                       : 02:40:42.049000000
    FromStats_FrameCount                     : 3449
    FromStats_StreamSize                     : 39452531

    Menu
    00:00:00.000                             : :Chapter 1
    00:07:43.797                             : :Chapter 2
    00:21:42.676                             : :Chapter 3
    00:25:57.389                             : :Chapter 4
    00:29:30.143                             : :Chapter 5
    00:34:16.137                             : :Chapter 6
    00:38:15.543                             : :Chapter 7
    00:42:23.958                             : :Chapter 8
    00:50:37.326                             : :Chapter 9
    00:53:22.950                             : :Chapter 10
    00:58:40.809                             : :Chapter 11
    01:03:16.042                             : :Chapter 12
    01:06:51.966                             : :Chapter 13
    01:12:25.258                             : :Chapter 14
    01:13:37.163                             : :Chapter 15
    01:16:53.025                             : :Chapter 16
    01:21:45.067                             : :Chapter 17
    01:25:25.787                             : :Chapter 18
    01:28:46.196                             : :Chapter 19
    01:33:06.539                             : :Chapter 20
    01:35:25.720                             : :Chapter 21
    01:41:05.268                             : :Chapter 22
    01:49:13.756                             : :Chapter 23
    01:53:22.921                             : :Chapter 24
    01:56:42.621                             : :Chapter 25
    02:02:50.864                             : :Chapter 26
    02:07:34.856                             : :Chapter 27
    02:12:05.292                             : :Chapter 28
    02:25:01.526                             : :Chapter 29
    02:29:22.579                             : :Chapter 30
    02:33:25.405                             : :Chapter 31
    02:40:06.514                             : :Chapter 32

  • Peso: 19.5 GiB

Sinopsis

Jimmy es un impetuoso y seductor saxofonista que aspira a formar parte de una gran banda. Francine es una tímida cantante de bar que sueña con ser famosa. Cuando se conocen, surge entre ellos una atracción inmediata y, cuando él toca y ella canta, consiguen hacer temblar los rascacielos. Es el comienzo de una tormentosa relación que pondrá a prueba su capacidad para encontrar el equilibrio entre su pasión por el jazz y el amor que los une. (FILMAFFINITY)

Ficha técnica

Video trailer de la película

Enlaces de descarga

Rip de Bluray

Descargar New York, New York (1977) Full 1080p Latino




Aportes de DPeliculasHDmega la pass es:dpeliculashdmega.org Aportes de CinemaniaHD la pass es:cinemaniahdd.com

Películas relacionadas

  • Los Gustos y Los Colores (2018) NF 1080p Latino

    2018
    Los Gustos y Los Colores (2018) NF 1080p Latino

    0.0 1h 35m 2018

    Justo cuando Simone se anima a contarle a su conservadora familia judía que es lesbiana, se siente atraída...

    Director: Myriam Aziza

    Género: Comedia

    Actores: Stéphane Debac

  • Luke Cage (2018) Temporada 2 NF 1080p Latino

    2018
    Luke Cage (2018) Temporada 2 NF 1080p Latino

    1.0 0h 46m 2018

    De acuerdo a la sinopsis oficial de la segunda temporada, Luke Cage se ha convertido en un héroe reconocido...

    Director: Cheo Hodari Coker

    Género: Action & Adventure

    Actores: Theo Rossi

  • Luke Cage (2016) Temporada 1 NF 1080p Latino

    2016
    Luke Cage (2016) Temporada 1 NF 1080p Latino

    1.0 0h 46m 2016

    Como consecuencia de un experimento fallido, Luke Cage (Mike Colter) ha desarrollado una piel indestructible...

    Director: Cheo Hodari Coker

    Género: Action & Adventure

    Actores: Theo Rossi

  • Lady Bird (2017) Full 1080p Latino

    2017
    Lady Bird (2017) Full 1080p Latino

    5.0 1h 34m 2017

    Sacramento, California, año 2002. Una joven llamada Christine McPherson (Saoirse Ronan), apodada como...

    Director: Jonas Spaccarotelli

    Género: Comedia

    Actores: Tracy Letts

  • Plan de escape (2013) Full 1080p Latino

    2013
    Plan de escape (2013) Full 1080p Latino

    3.0 1h 56m 2013

    El experto en seguridad Ray Breslin prueba sus teorías poco convencionales en diseño de prisiones elaborando...

    Director: Mikael Håfström

    Género: Acción

    Actores: Vinnie Jones

Comentarios 0