Negación (2016) 1080p Latino

1.524 vistas
1 estrella2 estrellas3 estrellas4 estrellas5 estrellas (Ninguna valoración todavía)
Cargando…

Información de Negación (2016) 1080p Latino

Denial hd latino

Datos de la película

  • Calidad: 1080p
  • Audio: Español Latino AC3 5.1 DVD - Ingles AC3 5.1 BLURAY
  • Subtitulos: Español Latino SRT - Ingles SRT
  • Resolución: 1920x804p
  • Formato: MKV
  • Codec: H.264
  • Encoder: Dpelis
  • Mediainfo: Clic para Mostrar Datos Ver
  • Deniel.2016.1080P.LATINO.mkv
    Format                      : Matroska
    Format version              : Version 4 / Version 2
    File size                   : 3.31 GiB
    Duration                    : 1 h 50 min
    Overall bit rate            : 4 285 kb/s
    Movie name                  : DPeliculasHDMega.ORG
    Encoded date                : UTC 2017-06-16 04:05:29 / UTC 2017-06-16T01:30:56Z
    Writing application         : mkvmerge v10.0.0 ('To Drown In You') 64bit
    Writing library             : libebml v1.3.4 + libmatroska v1.4.5 / Lavf57.7.2

    Video
    ID                          : 1
    Format                      : AVC
    Format/Info                 : Advanced Video Codec
    Format profile              : High@L4.1
    Format settings, CABAC      : Yes
    Format settings, ReFrames   : 4 frames
    Codec ID                    : V_MPEG4/ISO/AVC
    Duration                    : 1 h 50 min
    Bit rate                    : 3 500 kb/s
    Width                       : 1 920 pixels
    Height                      : 804 pixels
    Display aspect ratio        : 2.40:1
    Frame rate mode             : Constant
    Frame rate                  : 23.976 (24000/1001) FPS
    Color space                 : YUV
    Chroma subsampling          : 4:2:0
    Bit depth                   : 8 bits
    Scan type                   : Progressive
    Bits/(Pixel*Frame)          : 0.095
    Stream size                 : 2.60 GiB (79%)
    Writing library             : x264 core 148 r2708 86b7198
    Encoding settings           : cabac=1 / ref=3 / deblock=1:0:0 / analyse=0x3:0x113 / me=hex / subme=7 / psy=1 / psy_rd=1.00:0.00 / mixed_ref=1 / me_range=16 / chroma_me=1 / trellis=1 / 8x8dct=1 / cqm=0 / deadzone=21,11 / fast_pskip=1 / chroma_qp_offset=-2 / threads=25 / lookahead_threads=4 / sliced_threads=0 / nr=0 / decimate=1 / interlaced=0 / bluray_compat=0 / constrained_intra=0 / bframes=3 / b_pyramid=2 / b_adapt=1 / b_bias=0 / direct=1 / weightb=1 / open_gop=0 / weightp=2 / keyint=240 / keyint_min=24 / scenecut=40 / intra_refresh=0 / rc_lookahead=40 / rc=abr / mbtree=1 / bitrate=3500 / ratetol=1.0 / qcomp=0.60 / qpmin=0 / qpmax=69 / qpstep=4 / vbv_maxrate=62500 / vbv_bufsize=78125 / nal_hrd=none / filler=0 / ip_ratio=1.40 / aq=1:1.00
    Default                     : Yes
    Forced                      : No
    Color range                 : Limited
    Color primaries             : BT.709
    Transfer characteristics    : BT.709
    Matrix coefficients         : BT.709
    Statistics Tags Issue       : mkvmerge v10.0.0 ('To Drown In You') 64bit 2017-06-16 04:05:29 / mkvmerge v10.0.0 ('To Drown In You') 64bit 2017-06-16 04:05:29 / UTC 2017-06-16T01:30:56Z
    FromStats_BitRate           : 3451080
    FromStats_Duration          : 01:50:32.459000000
    FromStats_FrameCount        : 159020
    FromStats_StreamSize        : 2861143820

    Audio #1
    ID                          : 2
    Format                      : AC-3
    Format/Info                 : Audio Coding 3
    Format settings, Endianness : Big
    Codec ID                    : A_AC3
    Duration                    : 1 h 50 min
    Bit rate mode               : Constant
    Bit rate                    : 448 kb/s
    Channel(s)                  : 6 channels
    Channel positions           : Front: L C R, Side: L R, LFE
    Sampling rate               : 48.0 kHz
    Frame rate                  : 31.250 FPS (1536 spf)
    Bit depth                   : 16 bits
    Compression mode            : Lossy
    Delay relative to video     : 295 ms
    Stream size                 : 354 MiB (10%)
    Language                    : Spanish
    Service kind                : Complete Main
    Default                     : Yes
    Forced                      : No
    Statistics Tags Issue       : mkvmerge v10.0.0 ('To Drown In You') 64bit 2017-06-16 04:05:29 / mkvmerge v10.0.0 ('To Drown In You') 64bit 2017-06-16 04:05:29 / UTC 2017-06-16T01:30:56Z
    FromStats_BitRate           : 448000
    FromStats_Duration          : 01:50:31.392000000
    FromStats_FrameCount        : 207231
    FromStats_StreamSize        : 371357952

    Audio #2
    ID                          : 3
    Format                      : AC-3
    Format/Info                 : Audio Coding 3
    Format settings, Endianness : Big
    Codec ID                    : A_AC3
    Duration                    : 1 h 50 min
    Bit rate mode               : Constant
    Bit rate                    : 384 kb/s
    Channel(s)                  : 6 channels
    Channel positions           : Front: L C R, Side: L R, LFE
    Sampling rate               : 48.0 kHz
    Frame rate                  : 31.250 FPS (1536 spf)
    Bit depth                   : 16 bits
    Compression mode            : Lossy
    Delay relative to video     : -5 ms
    Stream size                 : 304 MiB (9%)
    Title                       : Surround
    Language                    : English
    Service kind                : Complete Main
    Default                     : No
    Forced                      : No
    Statistics Tags Issue       : mkvmerge v10.0.0 ('To Drown In You') 64bit 2017-06-16 04:05:29 / mkvmerge v10.0.0 ('To Drown In You') 64bit 2017-06-16 04:05:29 / UTC 2017-06-16T01:30:56Z
    FromStats_BitRate           : 384000
    FromStats_Duration          : 01:50:32.448000000
    FromStats_FrameCount        : 207264
    FromStats_StreamSize        : 318357504

    Text #1
    ID                          : 4
    Format                      : UTF-8
    Codec ID                    : S_TEXT/UTF8
    Codec ID/Info               : UTF-8 Plain Text
    Language                    : Spanish
    Default                     : No
    Forced                      : No
    Statistics Tags Issue       : mkvmerge v10.0.0 ('To Drown In You') 64bit 2017-06-16 04:05:29 / mkvmerge v10.0.0 ('To Drown In You') 64bit 2017-06-16 04:05:29 / UTC 2017-06-16T01:30:56Z
    FromStats_BitRate           : 97
    FromStats_Duration          : 01:46:03.808000000
    FromStats_FrameCount        : 2079
    FromStats_StreamSize        : 77811

    Text #2
    ID                          : 5
    Format                      : UTF-8
    Codec ID                    : S_TEXT/UTF8
    Codec ID/Info               : UTF-8 Plain Text
    Language                    : English
    Default                     : No
    Forced                      : No
    Statistics Tags Issue       : mkvmerge v10.0.0 ('To Drown In You') 64bit 2017-06-16 04:05:29 / mkvmerge v10.0.0 ('To Drown In You') 64bit 2017-06-16 04:05:29 / UTC 2017-06-16T01:30:56Z
    FromStats_BitRate           : 90
    FromStats_Duration          : 01:43:17.804000000
    FromStats_FrameCount        : 1974
    FromStats_StreamSize        : 69934

    Text #3
    ID                          : 6
    Format                      : UTF-8
    Codec ID                    : S_TEXT/UTF8
    Codec ID/Info               : UTF-8 Plain Text
    Language                    : Spanish
    Default                     : Yes
    Forced                      : No
    Statistics Tags Issue       : mkvmerge v10.0.0 ('To Drown In You') 64bit 2017-06-16 04:05:29 / mkvmerge v10.0.0 ('To Drown In You') 64bit 2017-06-16 04:05:29 / UTC 2017-06-16T01:30:56Z
    FromStats_BitRate           : 45
    FromStats_Duration          : 00:00:20.100000000
    FromStats_FrameCount        : 1
    FromStats_StreamSize        : 115

    Menu
    00:00:00.000                : :Chapter 1
    00:05:19.152                : :Chapter 2
    00:09:14.012                : :Chapter 3
    00:15:51.242                : :Chapter 4
    00:19:36.133                : :Chapter 5
    00:25:44.334                : :Chapter 6
    00:31:13.205                : :Chapter 7
    00:41:05.380                : :Chapter 8
    00:47:15.583                : :Chapter 9
    00:54:47.534                : :Chapter 10
    00:58:15.283                : :Chapter 11
    01:07:59.492                : :Chapter 12
    01:13:07.300                : :Chapter 13
    01:17:50.249                : :Chapter 14
    01:22:18.809                : :Chapter 15
    01:28:07.783                : :Chapter 16
    01:31:36.950                : :Chapter 17
    01:36:10.223                : :Chapter 18
    01:40:39.283                : :Chapter 19
    01:46:12.825                : :Chapter 20

  • Peso: 3.31 GB

Sinopsis

Cuando la famosa historiadora norteamericana Deborah E. Lipstadt acusa a determinados periodistas e historiadores de negacionistas en su libro “La Negación del Holocausto”, es denunciada por el negacionista británico David Irving, el famoso periodista e historiador admirador de Hitler, y se querella contra ella en 1996 por difamaciones. Entonces Lipstadt se propone derrotar a Irving y los negacionistas en Inglaterra sólo con expertos en el ámbito académico: sin llamar a declarar siquiera a un sólo superviviente de la Shoah.

Ficha técnica

  • Titulo original: Denial
  • Fecha de lanzamiento: 30-09-2016 (United Kingdom, United States of America)
  • Director: Kim Armitage, Mick Jackson
  • Género: Drama, Historia
  • Puntuación: 0.0 0 votos
  • Duración:
    1h 50m

Video trailer de la película

Enlaces de descarga

Rip de Bluray

Descargar Negación (2016) 1080p Latino




Aportes de DPeliculasHDmega la pass es:dpeliculashdmega.org Aportes de CinemaniaHD la pass es:cinemaniahdd.com
Guardado en : Drama , Historia

Películas relacionadas

  • Luke Cage (2018) Temporada 2 NF 1080p Latino

    2018
    Luke Cage (2018) Temporada 2 NF 1080p Latino

    1.0 0h 46m 2018

    De acuerdo a la sinopsis oficial de la segunda temporada, Luke Cage se ha convertido en un héroe reconocido...

    Director: Cheo Hodari Coker

    Género: Action & Adventure

    Actores: Theo Rossi

  • Luke Cage (2016) Temporada 1 NF 1080p Latino

    2016
    Luke Cage (2016) Temporada 1 NF 1080p Latino

    1.0 0h 46m 2016

    Como consecuencia de un experimento fallido, Luke Cage (Mike Colter) ha desarrollado una piel indestructible...

    Director: Cheo Hodari Coker

    Género: Action & Adventure

    Actores: Theo Rossi

  • Lady Bird (2017) Full 1080p Latino

    2017
    Lady Bird (2017) Full 1080p Latino

    5.0 1h 34m 2017

    Sacramento, California, año 2002. Una joven llamada Christine McPherson (Saoirse Ronan), apodada como...

    Director: Jonas Spaccarotelli

    Género: Comedia

    Actores: Tracy Letts

  • El sentido de un final (2017) 1080p Latino

    2017
    El sentido de un final (2017) 1080p Latino

    0.0 1h 48m 2017

    Tony Webster, un hombre jubilado y divorciado, mantiene una tranquila y solitaria vida. Un día descubre...

    Director: Ritesh Batra

    Género: 1080p Portada Negra

    Actores: Timothy Innes

  • Once (2007) Full 1080p Latino

    2007
    Once (2007) Full 1080p Latino

    0.0 1 h 26 min 2007

    Glen Hansard es un cantante y compositor que interpreta sus canciones por las calles de Dublín, cuando...

    Director: John Carney

    Género: Drama

    Actores: Markéta Irglová

Comentarios 0