Nacido el 4 de julio (1989) Full 1080p Latino

952 vistas
1 estrella2 estrellas3 estrellas4 estrellas5 estrellas (1 votos, promedio: 5,00 de 5)
Cargando…

Información de Nacido el 4 de julio (1989) Full 1080p Latino

Datos de la película

  • Calidad: Full 1080p
  • Audio: Español Latino DTS 5.1 BLURAY - Ingles DTS 5.1 BLURAY
  • Subtitulos: Español Latino PGS - Ingles PGS
  • Resolución: 1920x1080p
  • Formato: MKV
  • Codec: H.264
  • Encoder: Dracarys
  • Mediainfo: Clic para Mostrar Datos Ver
  • Format                                   : Matroska
    Format version                           : Version 4 / Version 2
    File size                                : 8.24 GiB
    Duration                                 : 2 h 24 min
    Overall bit rate                         : 8 187 kb/s
    Movie name                               : CinemaniaHDD.net
    Encoded date                             : UTC 2018-07-04 03:15:51 / UTC 2018-07-01T05:18:21Z
    Writing application                      : mkvmerge v15.0.0 ('Duel with the Devil') 64-bit
    Writing library                          : libebml v1.3.5 + libmatroska v1.4.5 / Lavf57.7.2

    Video
    ID                                       : 1
    Format                                   : AVC
    Format/Info                              : Advanced Video Codec
    Format profile                           : High@L4.1
    Format settings                          : CABAC / 4 Ref Frames
    Format settings, CABAC                   : Yes
    Format settings, RefFrames               : 4 frames
    Codec ID                                 : V_MPEG4/ISO/AVC
    Duration                                 : 2 h 24 min
    Bit rate                                 : 5 747 kb/s
    Width                                    : 1 920 pixels
    Height                                   : 1 080 pixels
    Display aspect ratio                     : 16:9
    Frame rate mode                          : Constant
    Frame rate                               : 23.976 (24000/1001) FPS
    Color space                              : YUV
    Chroma subsampling                       : 4:2:0
    Bit depth                                : 8 bits
    Scan type                                : Progressive
    Bits/(Pixel*Frame)                       : 0.116
    Stream size                              : 5.79 GiB (70%)
    Title                                    : Nacido el 4 de julio (1989) Full 1080p Latino
    Writing library                          : x264 core 148 r2708 86b7198
    Encoding settings                        : cabac=1 / ref=4 / deblock=1:0:0 / analyse=0x3:0x133 / me=esa / subme=10 / psy=1 / psy_rd=1.00:0.00 / mixed_ref=1 / me_range=24 / chroma_me=1 / trellis=2 / 8x8dct=1 / cqm=0 / deadzone=21,11 / fast_pskip=1 / chroma_qp_offset=-2 / threads=34 / lookahead_threads=5 / sliced_threads=0 / nr=0 / decimate=1 / interlaced=0 / bluray_compat=0 / constrained_intra=0 / bframes=8 / b_pyramid=2 / b_adapt=2 / b_bias=0 / direct=3 / weightb=1 / open_gop=0 / weightp=2 / keyint=240 / keyint_min=24 / scenecut=40 / intra_refresh=0 / rc_lookahead=60 / rc=crf / mbtree=1 / crf=20.0 / qcomp=0.60 / qpmin=0 / qpmax=69 / qpstep=4 / vbv_maxrate=62500 / vbv_bufsize=78125 / crf_max=0.0 / nal_hrd=none / filler=0 / ip_ratio=1.40 / aq=1:1.00
    Language                                 : English
    Default                                  : Yes
    Forced                                   : No
    Color range                              : Limited
    Color primaries                          : BT.709
    Transfer characteristics                 : BT.709
    Matrix coefficients                      : BT.709
    Statistics Tags Issue                    : mkvmerge v15.0.0 ('Duel with the Devil') 64-bit 2018-07-04 03:15:51 / mkvmerge v15.0.0 ('Duel with the Devil') 64-bit 2018-07-04 03:15:51 / UTC 2018-07-01T05:18:21Z
    FromStats_BitRate                        : 5884158
    FromStats_Duration                       : 02:24:08.056000000
    FromStats_FrameCount                     : 207346
    FromStats_StreamSize                     : 6360817046

    Audio #1
    ID                                       : 2
    Format                                   : DTS
    Format/Info                              : Digital Theater Systems
    Mode                                     : 16
    Format settings, Endianness              : Big
    Codec ID                                 : A_DTS
    Duration                                 : 2 h 24 min
    Bit rate mode                            : Constant
    Bit rate                                 : 768 kb/s
    Channel(s)                               : 6 channels
    Channel positions                        : Front: L C R, Side: L R, LFE
    Sampling rate                            : 48.0 kHz
    Frame rate                               : 93.750 FPS (512 SPF)
    Bit depth                                : 24 bits
    Compression mode                         : Lossy
    Stream size                              : 792 MiB (9%)
    Language                                 : Spanish
    Default                                  : Yes
    Forced                                   : No
    Statistics Tags Issue                    : mkvmerge v15.0.0 ('Duel with the Devil') 64-bit 2018-07-04 03:15:51 / mkvmerge v15.0.0 ('Duel with the Devil') 64-bit 2018-07-04 03:15:51 / UTC 2018-07-01T05:18:21Z
    FromStats_BitRate                        : 767999
    FromStats_Duration                       : 02:24:08.054000000
    FromStats_FrameCount                     : 810755
    FromStats_StreamSize                     : 830213120

    Audio #2
    ID                                       : 3
    Format                                   : DTS
    Format/Info                              : Digital Theater Systems
    Mode                                     : 16
    Format settings, Endianness              : Big
    Codec ID                                 : A_DTS
    Duration                                 : 2 h 24 min
    Bit rate mode                            : Constant
    Bit rate                                 : 1 509 kb/s
    Channel(s)                               : 6 channels
    Channel positions                        : Front: L C R, Side: L R, LFE
    Sampling rate                            : 48.0 kHz
    Frame rate                               : 93.750 FPS (512 SPF)
    Bit depth                                : 24 bits
    Compression mode                         : Lossy
    Stream size                              : 1.52 GiB (18%)
    Language                                 : English
    Default                                  : No
    Forced                                   : No
    Statistics Tags Issue                    : mkvmerge v15.0.0 ('Duel with the Devil') 64-bit 2018-07-04 03:15:51 / mkvmerge v15.0.0 ('Duel with the Devil') 64-bit 2018-07-04 03:15:51 / UTC 2018-07-01T05:18:21Z
    FromStats_BitRate                        : 1508999
    FromStats_Duration                       : 02:24:08.054000000
    FromStats_FrameCount                     : 810755
    FromStats_StreamSize                     : 1631239060

    Text #1
    ID                                       : 4
    Format                                   : PGS
    Muxing mode                              : zlib
    Codec ID                                 : S_HDMV/PGS
    Codec ID/Info                            : Picture based subtitle format used on BDs/HD-DVDs
    Language                                 : English
    Default                                  : No
    Forced                                   : No
    Statistics Tags Issue                    : mkvmerge v15.0.0 ('Duel with the Devil') 64-bit 2018-07-04 03:15:51 / mkvmerge v15.0.0 ('Duel with the Devil') 64-bit 2018-07-04 03:15:51 / UTC 2018-07-01T05:18:21Z
    FromStats_BitRate                        : 42708
    FromStats_Duration                       : 02:17:06.343000000
    FromStats_FrameCount                     : 3964
    FromStats_StreamSize                     : 43916824

    Text #2
    ID                                       : 5
    Format                                   : PGS
    Muxing mode                              : zlib
    Codec ID                                 : S_HDMV/PGS
    Codec ID/Info                            : Picture based subtitle format used on BDs/HD-DVDs
    Language                                 : Spanish
    Default                                  : No
    Forced                                   : No
    Statistics Tags Issue                    : mkvmerge v15.0.0 ('Duel with the Devil') 64-bit 2018-07-04 03:15:51 / mkvmerge v15.0.0 ('Duel with the Devil') 64-bit 2018-07-04 03:15:51 / UTC 2018-07-01T05:18:21Z
    FromStats_BitRate                        : 36615
    FromStats_Duration                       : 02:17:03.173000000
    FromStats_FrameCount                     : 3299
    FromStats_StreamSize                     : 37636995

    Menu
    00:00:00.000                             : :Chapter 1
    00:16:28.529                             : :Chapter 2
    00:27:36.446                             : :Chapter 3
    00:32:05.966                             : :Chapter 4
    00:37:25.744                             : :Chapter 5
    00:44:52.440                             : :Chapter 6
    00:58:55.198                             : :Chapter 7
    01:08:42.160                             : :Chapter 8
    01:20:21.859                             : :Chapter 9
    01:29:00.585                             : :Chapter 10
    01:33:56.756                             : :Chapter 11
    01:39:28.588                             : :Chapter 12
    01:56:53.089                             : :Chapter 13
    02:05:46.873                             : :Chapter 14
    02:15:07.766                             : :Chapter 15
    02:18:09.072                             : :Chapter 16

  • Peso: 8.24 GiB

Sinopsis

Inspirada en la autobiografía de Ron Kovic. Segunda parte de la trilogía sobre Vietnam: muestra la historia de un joven que se alista como voluntario para ir a la guerra, convencido de que defender a su país es la mejor manera de demostrarle su amor. Pero sus convicciones cambiarán radicalmente cuando regrese como veterano de guerra, postrado en una silla de ruedas y atendido en un cochambroso hospital.

Ficha técnica

Video trailer de la película

Enlaces de descarga

Rip de Bluray

Descargar Nacido el 4 de julio (1989) Full 1080p Latino




Aportes de DPeliculasHDmega la pass es:dpeliculashdmega.org Aportes de CinemaniaHD la pass es:cinemaniahdd.com
Guardado en : Drama , FULL 1080p Plateadas , Guerra

Películas relacionadas

  • Paciente Cero (2018) Full 1080p Latino

    2018
    Paciente Cero (2018) Full 1080p Latino

    5.0 1h 26m 2018

    Paciente Cero (2018) Full 1080p Latino; Mega, Google Drive. Tras una pandemia sin precedentes, la Humanidad...

    Director: Stefan Ruzowitzky

    Género: Acción

    Actores: Yumiko Hanasaka

  • Paciente Cero (2018) 1080p Latino

    2018
    Paciente Cero (2018) 1080p Latino

    0.0 1h 26m 2018

    Descargar Paciente Cero (2018) 1080p Latino; Mega, Google Drive. Tras una pandemia sin precedentes, la...

    Director: Stefan Ruzowitzky

    Género: Acción

    Actores: Yumiko Hanasaka

Comentarios 0