My Little Pony: La película (2017) Full 1080p Latino

1.276 vistas
1 estrella2 estrellas3 estrellas4 estrellas5 estrellas (1 votos, promedio: 5,00 de 5)
Cargando…

Información de My Little Pony: La película (2017) Full 1080p Latino

Datos de la película

  • Calidad: Full 1080p
  • Audio: Español Latino AC3 5.1 BLURAY - Ingles DTS 5.1 BLURAY
  • Subtitulos: Español Latino SRT
  • Resolución: 1920X1080p
  • Formato: MKV
  • Codec: H.264
  • Encoder: Dracarys
  • Mediainfo: Clic para Mostrar Datos Ver
  • Format                                   : Matroska
    Format version                           : Version 4 / Version 2
    File size                                : 2.54 GiB
    Duration                                 : 1 h 39 min
    Overall bit rate                         : 3 669 kb/s
    Movie name                               : CinemaniaHDD.com
    Encoded date                             : UTC 2018-01-12 08:21:24 / UTC 2018-01-12T04:05:42Z
    Writing application                      : mkvmerge v15.0.0 ('Duel with the Devil') 64-bit
    Writing library                          : libebml v1.3.5 + libmatroska v1.4.5 / Lavf57.7.2

    Video
    ID                                       : 1
    Format                                   : AVC
    Format/Info                              : Advanced Video Codec
    Format profile                           : High@L4.1
    Format settings                          : CABAC / 5 Ref Frames
    Format settings, CABAC                   : Yes
    Format settings, RefFrames               : 5 frames
    Codec ID                                 : V_MPEG4/ISO/AVC
    Duration                                 : 1 h 39 min
    Bit rate                                 : 2 380 kb/s
    Width                                    : 1 920 pixels
    Height                                   : 808 pixels
    Display aspect ratio                     : 2.40:1
    Frame rate mode                          : Constant
    Frame rate                               : 23.976 (24000/1001) FPS
    Color space                              : YUV
    Chroma subsampling                       : 4:2:0
    Bit depth                                : 8 bits
    Scan type                                : Progressive
    Bits/(Pixel*Frame)                       : 0.064
    Stream size                              : 1.65 GiB (65%)
    Title                                    : file:///E:/ANDRES/My Little Pony The Movie (2017) 1080p BDRip Dual Audio Latino-Inglés [Subt. Esp]/My Little Pony La película (2017) Full 1080p Latino.srt
    Writing library                          : x264 core 148 r2708 86b7198
    Encoding settings                        : cabac=1 / ref=5 / deblock=1:0:0 / analyse=0x3:0x133 / me=esa / subme=10 / psy=1 / psy_rd=1.00:0.00 / mixed_ref=1 / me_range=24 / chroma_me=1 / trellis=2 / 8x8dct=1 / cqm=0 / deadzone=21,11 / fast_pskip=1 / chroma_qp_offset=-2 / threads=25 / lookahead_threads=4 / sliced_threads=0 / nr=0 / decimate=1 / interlaced=0 / bluray_compat=0 / constrained_intra=0 / bframes=8 / b_pyramid=2 / b_adapt=2 / b_bias=0 / direct=3 / weightb=1 / open_gop=0 / weightp=2 / keyint=240 / keyint_min=24 / scenecut=40 / intra_refresh=0 / rc_lookahead=60 / rc=crf / mbtree=1 / crf=20.0 / qcomp=0.60 / qpmin=0 / qpmax=69 / qpstep=4 / vbv_maxrate=62500 / vbv_bufsize=78125 / crf_max=0.0 / nal_hrd=none / filler=0 / ip_ratio=1.40 / aq=1:1.00
    Language                                 : English
    Default                                  : Yes
    Forced                                   : No
    Color range                              : Limited
    Color primaries                          : BT.709
    Transfer characteristics                 : BT.709
    Matrix coefficients                      : BT.709
    Statistics Tags Issue                    : mkvmerge v15.0.0 ('Duel with the Devil') 64-bit 2018-01-12 08:21:24 / mkvmerge v15.0.0 ('Duel with the Devil') 64-bit 2018-01-12 08:21:24 / UTC 2018-01-12T04:05:42Z
    FromStats_BitRate                        : 2450321
    FromStats_Duration                       : 01:39:14.991000000
    FromStats_FrameCount                     : 142777
    FromStats_StreamSize                     : 1823954991

    Audio #1
    ID                                       : 2
    Format                                   : AC-3
    Format/Info                              : Audio Coding 3
    Format settings, Endianness              : Big
    Codec ID                                 : A_AC3
    Duration                                 : 1 h 39 min
    Bit rate mode                            : Constant
    Bit rate                                 : 448 kb/s
    Channel(s)                               : 6 channels
    Channel positions                        : Front: L C R, Side: L R, LFE
    Sampling rate                            : 48.0 kHz
    Frame rate                               : 31.250 FPS (1536 SPF)
    Bit depth                                : 16 bits
    Compression mode                         : Lossy
    Stream size                              : 318 MiB (12%)
    Language                                 : Spanish
    Service kind                             : Complete Main
    Default                                  : Yes
    Forced                                   : No
    Statistics Tags Issue                    : mkvmerge v15.0.0 ('Duel with the Devil') 64-bit 2018-01-12 08:21:24 / mkvmerge v15.0.0 ('Duel with the Devil') 64-bit 2018-01-12 08:21:24 / UTC 2018-01-12T04:05:42Z
    FromStats_BitRate                        : 448000
    FromStats_Duration                       : 01:39:15.008000000
    FromStats_FrameCount                     : 186094
    FromStats_StreamSize                     : 333480448

    Audio #2
    ID                                       : 3
    Format                                   : DTS
    Format/Info                              : Digital Theater Systems
    Mode                                     : 16
    Format settings, Endianness              : Big
    Codec ID                                 : A_DTS
    Duration                                 : 1 h 39 min
    Bit rate mode                            : Constant
    Bit rate                                 : 768 kb/s
    Channel(s)                               : 6 channels
    Channel positions                        : Front: L C R, Side: L R, LFE
    Sampling rate                            : 48.0 kHz
    Frame rate                               : 93.750 FPS (512 SPF)
    Bit depth                                : 24 bits
    Compression mode                         : Lossy
    Stream size                              : 545 MiB (21%)
    Language                                 : English
    Default                                  : No
    Forced                                   : No
    Statistics Tags Issue                    : mkvmerge v15.0.0 ('Duel with the Devil') 64-bit 2018-01-12 08:21:24 / mkvmerge v15.0.0 ('Duel with the Devil') 64-bit 2018-01-12 08:21:24 / UTC 2018-01-12T04:05:42Z
    FromStats_BitRate                        : 767999
    FromStats_Duration                       : 01:39:14.998000000
    FromStats_FrameCount                     : 558281
    FromStats_StreamSize                     : 571679744

    Text
    ID                                       : 4
    Format                                   : UTF-8
    Codec ID                                 : S_TEXT/UTF8
    Codec ID/Info                            : UTF-8 Plain Text
    Language                                 : Spanish
    Default                                  : Yes
    Forced                                   : No
    Statistics Tags Issue                    : mkvmerge v15.0.0 ('Duel with the Devil') 64-bit 2018-01-12 08:21:24 / mkvmerge v15.0.0 ('Duel with the Devil') 64-bit 2018-01-12 08:21:24 / UTC 2018-01-12T04:05:42Z
    FromStats_BitRate                        : 57
    FromStats_Duration                       : 01:29:29.654000000
    FromStats_FrameCount                     : 1155
    FromStats_StreamSize                     : 38446

    Menu
    00:00:00.000                             : :00:00:00.000
    00:05:23.073                             : :00:05:23.073
    00:12:03.139                             : :00:12:03.139
    00:17:55.533                             : :00:17:55.533
    00:22:59.044                             : :00:22:59.044
    00:30:24.865                             : :00:30:24.865
    00:35:30.337                             : :00:35:30.336
    00:41:33.866                             : :00:41:33.866
    00:46:23.823                             : :00:46:23.823
    00:50:10.841                             : :00:50:10.841
    01:01:11.668                             : :01:01:11.543
    01:04:23.276                             : :01:04:23.276
    01:09:01.137                             : :01:09:01.137
    01:15:48.210                             : :01:15:48.210
    01:20:24.486                             : :01:20:24.486
    01:27:24.072                             : :01:27:24.072

     

  • Peso: 2.54 GiB

Sinopsis

Cuando una fuerza oscura amenaza a Ponyville y el Mane 6, todos se van en un viaje hasta el final de equestria para salvar a su querida casa, y se encuentran con nuevos amigos y peligrosos desafíos a lo largo del camino.

 

Resubida

Ficha técnica

Video trailer de la película

Enlaces de descarga

Rip de Bluray

Descargar My Little Pony: La película (2017) Full 1080p Latino




Aportes de DPeliculasHDmega la pass es:dpeliculashdmega.org Aportes de CinemaniaHD la pass es:cinemaniahdd.com

Películas relacionadas

  • Hotel Transylvania 3 (2018) WEBDL 1080p Latino

    2018
    Hotel Transylvania 3 (2018) WEBDL 1080p Latino

    0.0 1h 30m 2018

    Nuestra familia de monstruos favorita se embarca en un crucero de lujo para que por fin Drac pueda tomarse...

    Director: Genndy Tartakovsky

    Género: Animación

    Actores: Tara Strong

  • Sicario (2015) Full 1080p Latino

    2015
    Sicario (2015) Full 1080p Latino

    5.0 2h 1m 2015

    En la zona fronteriza que se extiende entre Estados Unidos y México la joven Kate Macer, una idealista...

    Director: Judi Townsend

    Género: Acción

    Actores: Victor Garber

Comentarios 8
  • Tio Higuera - 16 enero, 2018

    Gracias, todo bien.

  • Emile - 15 enero, 2018

    La película esta mal sincronizada hay partes que se repiten ya la baje de otro lado y en esa no hay mal sicronizacion solo la suya espero que la reparen.

    • dpelis - 15 enero, 2018

      cuando la bajo,y que parte se desincroniza? porq se resubio. saludos

  • etgar garcia - 12 enero, 2018

    porque la resubieron?

    • Dpelis2 - 12 enero, 2018

      La anterior tenia problemas de playlist.. esta esta correcta

  • Mau - 09 enero, 2018

    Hola tengo problemas para descomprimir esta pelicula, ya la descargue de nuevo y sigue el mismo error en la suma de control de fichero, alguien mas???

    • Mau - 09 enero, 2018

      es solo la contraseña es la de cinemania sorry

    • Dpelis2 - 09 enero, 2018

      Recuerda que debes tener actualizado tu winrar en la ultima version.