Muñequita de lujo (1961) Full 1080p Latino

858 vistas
1 estrella2 estrellas3 estrellas4 estrellas5 estrellas (5 votos, promedio: 5,00 de 5)
Cargando…

Información de Muñequita de lujo (1961) Full 1080p Latino

Datos de la película

  • Calidad: Full 1080p
  • Audio: Español Latino AC3 2.0 BLURAY - Ingles DTS 5.1 BLURAY
  • Subtitulos: Español Latino PGS - Ingles PGS
  • Resolución: 1920x1080p
  • Formato: MKV
  • Codec: H.264
  • Encoder: Dracarys
  • Mediainfo: Clic para Mostrar Datos Ver
  • Format                                   : Matroska
    Format version                           : Version 4 / Version 2
    File size                                : 9.85 GiB
    Duration                                 : 1 h 55 min
    Overall bit rate                         : 12.2 Mb/s
    Movie name                               : CinemaniaHDD.com
    Encoded date                             : UTC 2018-05-03 23:58:38 / UTC 2018-04-22T10:31:02Z
    Writing application                      : mkvmerge v15.0.0 ('Duel with the Devil') 64-bit
    Writing library                          : libebml v1.3.5 + libmatroska v1.4.5 / Lavf57.7.2

    Video
    ID                                       : 1
    Format                                   : AVC
    Format/Info                              : Advanced Video Codec
    Format profile                           : High@L4.1
    Format settings                          : CABAC / 4 Ref Frames
    Format settings, CABAC                   : Yes
    Format settings, RefFrames               : 4 frames
    Codec ID                                 : V_MPEG4/ISO/AVC
    Duration                                 : 1 h 55 min
    Bit rate                                 : 10.3 Mb/s
    Width                                    : 1 920 pixels
    Height                                   : 1 080 pixels
    Display aspect ratio                     : 16:9
    Frame rate mode                          : Constant
    Frame rate                               : 23.976 (24000/1001) FPS
    Color space                              : YUV
    Chroma subsampling                       : 4:2:0
    Bit depth                                : 8 bits
    Scan type                                : Progressive
    Bits/(Pixel*Frame)                       : 0.207
    Stream size                              : 8.26 GiB (84%)
    Title                                    : Muñequita de lujo (1961) Full 1080p Latino
    Writing library                          : x264 core 148 r2708 86b7198
    Encoding settings                        : cabac=1 / ref=4 / deblock=1:0:0 / analyse=0x3:0x133 / me=esa / subme=9 / psy=1 / psy_rd=1.00:0.00 / mixed_ref=1 / me_range=16 / chroma_me=1 / trellis=2 / 8x8dct=1 / cqm=0 / deadzone=21,11 / fast_pskip=1 / chroma_qp_offset=-2 / threads=34 / lookahead_threads=2 / sliced_threads=0 / nr=0 / decimate=1 / interlaced=0 / bluray_compat=0 / constrained_intra=0 / bframes=3 / b_pyramid=2 / b_adapt=2 / b_bias=0 / direct=3 / weightb=1 / open_gop=0 / weightp=2 / keyint=240 / keyint_min=24 / scenecut=40 / intra_refresh=0 / rc_lookahead=60 / rc=crf / mbtree=1 / crf=20.0 / qcomp=0.60 / qpmin=0 / qpmax=69 / qpstep=4 / vbv_maxrate=62500 / vbv_bufsize=78125 / crf_max=0.0 / nal_hrd=none / filler=0 / ip_ratio=1.40 / aq=1:1.00
    Language                                 : English
    Default                                  : Yes
    Forced                                   : No
    Color range                              : Limited
    Color primaries                          : BT.709
    Transfer characteristics                 : BT.709
    Matrix coefficients                      : BT.709
    Statistics Tags Issue                    : mkvmerge v15.0.0 ('Duel with the Devil') 64-bit 2018-05-03 23:58:38 / mkvmerge v15.0.0 ('Duel with the Devil') 64-bit 2018-05-03 23:58:38 / UTC 2018-04-22T10:31:02Z
    FromStats_BitRate                        : 10488483
    FromStats_Duration                       : 01:55:05.858000000
    FromStats_FrameCount                     : 165575
    FromStats_StreamSize                     : 9053997483

    Audio #1
    ID                                       : 2
    Format                                   : AC-3
    Format/Info                              : Audio Coding 3
    Format settings, Endianness              : Big
    Codec ID                                 : A_AC3
    Duration                                 : 1 h 55 min
    Bit rate mode                            : Constant
    Bit rate                                 : 224 kb/s
    Channel(s)                               : 2 channels
    Channel positions                        : Front: L R
    Sampling rate                            : 48.0 kHz
    Frame rate                               : 31.250 FPS (1536 SPF)
    Bit depth                                : 16 bits
    Compression mode                         : Lossy
    Stream size                              : 184 MiB (2%)
    Language                                 : Spanish
    Service kind                             : Complete Main
    Default                                  : Yes
    Forced                                   : No
    Statistics Tags Issue                    : mkvmerge v15.0.0 ('Duel with the Devil') 64-bit 2018-05-03 23:58:38 / mkvmerge v15.0.0 ('Duel with the Devil') 64-bit 2018-05-03 23:58:38 / UTC 2018-04-22T10:31:02Z
    FromStats_BitRate                        : 224000
    FromStats_Duration                       : 01:55:05.920000000
    FromStats_FrameCount                     : 215810
    FromStats_StreamSize                     : 193365760

    Audio #2
    ID                                       : 3
    Format                                   : DTS
    Format/Info                              : Digital Theater Systems
    Mode                                     : 16
    Format settings, Endianness              : Big
    Codec ID                                 : A_DTS
    Duration                                 : 1 h 55 min
    Bit rate mode                            : Constant
    Bit rate                                 : 1 509 kb/s
    Channel(s)                               : 6 channels
    Channel positions                        : Front: L C R, Side: L R, LFE
    Sampling rate                            : 48.0 kHz
    Frame rate                               : 93.750 FPS (512 SPF)
    Bit depth                                : 24 bits
    Compression mode                         : Lossy
    Stream size                              : 1.21 GiB (12%)
    Language                                 : English
    Default                                  : No
    Forced                                   : No
    Statistics Tags Issue                    : mkvmerge v15.0.0 ('Duel with the Devil') 64-bit 2018-05-03 23:58:38 / mkvmerge v15.0.0 ('Duel with the Devil') 64-bit 2018-05-03 23:58:38 / UTC 2018-04-22T10:31:02Z
    FromStats_BitRate                        : 1508999
    FromStats_Duration                       : 01:55:05.899000000
    FromStats_FrameCount                     : 647428
    FromStats_StreamSize                     : 1302625136

    Text #1
    ID                                       : 4
    Format                                   : PGS
    Muxing mode                              : zlib
    Codec ID                                 : S_HDMV/PGS
    Codec ID/Info                            : Picture based subtitle format used on BDs/HD-DVDs
    Language                                 : English
    Default                                  : No
    Forced                                   : No
    Statistics Tags Issue                    : mkvmerge v15.0.0 ('Duel with the Devil') 64-bit 2018-05-03 23:58:38 / mkvmerge v15.0.0 ('Duel with the Devil') 64-bit 2018-05-03 23:58:38 / UTC 2018-04-22T10:31:02Z
    FromStats_BitRate                        : 43538
    FromStats_Duration                       : 01:50:35.796000000
    FromStats_FrameCount                     : 3053
    FromStats_StreamSize                     : 36114221

    Text #2
    ID                                       : 5
    Format                                   : PGS
    Muxing mode                              : zlib
    Codec ID                                 : S_HDMV/PGS
    Codec ID/Info                            : Picture based subtitle format used on BDs/HD-DVDs
    Language                                 : Spanish
    Default                                  : No
    Forced                                   : No
    Statistics Tags Issue                    : mkvmerge v15.0.0 ('Duel with the Devil') 64-bit 2018-05-03 23:58:38 / mkvmerge v15.0.0 ('Duel with the Devil') 64-bit 2018-05-03 23:58:38 / UTC 2018-04-22T10:31:02Z
    FromStats_BitRate                        : 38042
    FromStats_Duration                       : 01:53:38.437000000
    FromStats_FrameCount                     : 3016
    FromStats_StreamSize                     : 32423719

    Menu
    00:00:00.000                             : :Chapter 1
    00:13:20.633                             : :Chapter 2
    00:17:03.564                             : :Chapter 3
    00:24:43.941                             : :Chapter 4
    00:39:54.225                             : :Chapter 5
    00:41:55.388                             : :Chapter 6
    00:43:50.503                             : :Chapter 7
    00:52:02.369                             : :Chapter 8
    00:57:51.176                             : :Chapter 9
    01:04:33.870                             : :Chapter 10
    01:19:41.318                             : :Chapter 11
    01:26:02.908                             : :Chapter 12
    01:33:06.998                             : :Chapter 13
    01:44:36.479                             : :Chapter 14

  • Peso: 9.85 GiB

Sinopsis

Holly Golightly es una bella joven de la alta sociedad neoyorquina que bajo su vida alegre esconde una gran tristeza. Holly tiene un comportamiento algo alocado, y alguna manía, como por ejemplo desayunar contemplando el escaparate de la lujosa joyería Tiffanys. Un día se muda a su mismo edificio Paul Varjak, un escritor en ciernes que mientras espera alcanzar un éxito que nunca llega vive de la relación con una mujer madura que le mantiene. Holly y Paul enseguida entablarán una bonita amistad.

Ficha técnica

Video trailer de la película

Enlaces de descarga

Rip de Bluray

Descargar Muñequita de lujo (1961) Full 1080p Latino




Aportes de DPeliculasHDmega la pass es:dpeliculashdmega.org Aportes de CinemaniaHD la pass es:cinemaniahdd.com

Películas relacionadas

Comentarios 0