Mune, le gardien de la lune (2015) 1080p Latino

3.067 vistas
1 estrella2 estrellas3 estrellas4 estrellas5 estrellas (Ninguna valoración todavía)
Cargando…

Información de Mune, le gardien de la lune (2015) 1080p Latino

Datos de la película

  • Calidad: 1080p
  • Audio: Se especifica abajo de la Sinopsis
  • Subtitulos: Español Latino SRT
  • Resolución: 1920x804p
  • Formato: MKV
  • Codec: H.264
  • Encoder: Dpelis
  • Mediainfo: Clic para Mostrar Datos Ver
  • Mune Guardian of the Moon (2014) 1080p Latino.mkv
    Format                      : Matroska
    Format version              : Version 4 / Version 2
    File size                   : 2.59 GiB
    Duration                    : 1 h 25 min
    Overall bit rate            : 4 330 kb/s
    Movie name                  : DPeliculasHDMega.ORG
    Encoded date                : UTC 2017-09-29 01:52:50 / UTC 2017-09-29T01:04:10Z
    Writing application         : mkvmerge v10.0.0 ('To Drown In You') 64bit
    Writing library             : libebml v1.3.4 + libmatroska v1.4.5 / Lavf57.7.2

    Video
    ID                          : 1
    Format                      : AVC
    Format/Info                 : Advanced Video Codec
    Format profile              : High@L4.1
    Format settings, CABAC      : Yes
    Format settings, RefFrames  : 4 frames
    Codec ID                    : V_MPEG4/ISO/AVC
    Duration                    : 1 h 25 min
    Bit rate                    : 3 500 kb/s
    Width                       : 1 920 pixels
    Height                      : 804 pixels
    Display aspect ratio        : 2.40:1
    Frame rate mode             : Constant
    Frame rate                  : 23.976 (24000/1001) FPS
    Color space                 : YUV
    Chroma subsampling          : 4:2:0
    Bit depth                   : 8 bits
    Scan type                   : Progressive
    Bits/(Pixel*Frame)          : 0.095
    Stream size                 : 2.04 GiB (79%)
    Writing library             : x264 core 148 r2708 86b7198
    Encoding settings           : cabac=1 / ref=3 / deblock=1:0:0 / analyse=0x3:0x113 / me=hex / subme=7 / psy=1 / psy_rd=1.00:0.00 / mixed_ref=1 / me_range=16 / chroma_me=1 / trellis=1 / 8x8dct=1 / cqm=0 / deadzone=21,11 / fast_pskip=1 / chroma_qp_offset=-2 / threads=12 / lookahead_threads=2 / sliced_threads=0 / nr=0 / decimate=1 / interlaced=0 / bluray_compat=0 / constrained_intra=0 / bframes=3 / b_pyramid=2 / b_adapt=1 / b_bias=0 / direct=1 / weightb=1 / open_gop=0 / weightp=2 / keyint=240 / keyint_min=24 / scenecut=40 / intra_refresh=0 / rc_lookahead=40 / rc=2pass / mbtree=1 / bitrate=3500 / ratetol=1.0 / qcomp=0.60 / qpmin=0 / qpmax=69 / qpstep=4 / cplxblur=20.0 / qblur=0.5 / vbv_maxrate=62500 / vbv_bufsize=78125 / nal_hrd=none / filler=0 / ip_ratio=1.40 / aq=1:1.00
    Default                     : Yes
    Forced                      : No
    Color range                 : Limited
    Color primaries             : BT.709
    Transfer characteristics    : BT.709
    Matrix coefficients         : BT.709
    Statistics Tags Issue       : mkvmerge v10.0.0 ('To Drown In You') 64bit 2017-09-29 01:52:50 / mkvmerge v10.0.0 ('To Drown In You') 64bit 2017-09-29 01:52:50 / UTC 2017-09-29T01:04:10Z
    FromStats_BitRate           : 3495959
    FromStats_Duration          : 01:25:28.332000000
    FromStats_FrameCount        : 122957
    FromStats_StreamSize        : 2241055327

    Audio #1
    ID                          : 2
    Format                      : AC-3
    Format/Info                 : Audio Coding 3
    Format settings, Endianness : Big
    Codec ID                    : A_AC3
    Duration                    : 1 h 25 min
    Bit rate mode               : Constant
    Bit rate                    : 384 kb/s
    Channel(s)                  : 6 channels
    Channel positions           : Front: L C R, Side: L R, LFE
    Sampling rate               : 48.0 kHz
    Frame rate                  : 31.250 FPS (1536 SPF)
    Bit depth                   : 16 bits
    Compression mode            : Lossy
    Delay relative to video     : -5 ms
    Stream size                 : 274 MiB (10%)
    Language                    : Spanish
    Service kind                : Complete Main
    Default                     : Yes
    Forced                      : No
    Statistics Tags Issue       : mkvmerge v10.0.0 ('To Drown In You') 64bit 2017-09-29 01:52:50 / mkvmerge v10.0.0 ('To Drown In You') 64bit 2017-09-29 01:52:50 / UTC 2017-09-29T01:04:10Z
    FromStats_BitRate           : 448000
    FromStats_Duration          : 01:25:25.696000000
    FromStats_FrameCount        : 160178
    FromStats_StreamSize        : 287038976

    Audio #2
    ID                          : 3
    Format                      : AC-3
    Format/Info                 : Audio Coding 3
    Format settings, Endianness : Big
    Codec ID                    : A_AC3
    Duration                    : 1 h 25 min
    Bit rate mode               : Constant
    Bit rate                    : 384 kb/s
    Channel(s)                  : 6 channels
    Channel positions           : Front: L C R, Side: L R, LFE
    Sampling rate               : 48.0 kHz
    Frame rate                  : 31.250 FPS (1536 SPF)
    Bit depth                   : 16 bits
    Compression mode            : Lossy
    Delay relative to video     : -5 ms
    Stream size                 : 235 MiB (9%)
    Title                       : Surround
    Language                    : French
    Service kind                : Complete Main
    Default                     : No
    Forced                      : No
    Statistics Tags Issue       : mkvmerge v10.0.0 ('To Drown In You') 64bit 2017-09-29 01:52:50 / mkvmerge v10.0.0 ('To Drown In You') 64bit 2017-09-29 01:52:50 / UTC 2017-09-29T01:04:10Z
    FromStats_BitRate           : 384000
    FromStats_Duration          : 01:25:28.320000000
    FromStats_FrameCount        : 160260
    FromStats_StreamSize        : 246159360

    Text
    ID                          : 4
    Format                      : UTF-8
    Codec ID                    : S_TEXT/UTF8
    Codec ID/Info               : UTF-8 Plain Text
    Language                    : Spanish
    Default                     : No
    Forced                      : No
    Statistics Tags Issue       : mkvmerge v10.0.0 ('To Drown In You') 64bit 2017-09-29 01:52:50 / mkvmerge v10.0.0 ('To Drown In You') 64bit 2017-09-29 01:52:50 / UTC 2017-09-29T01:04:10Z
    FromStats_BitRate           : 45
    FromStats_Duration          : 01:19:58.600000000
    FromStats_FrameCount        : 1050
    FromStats_StreamSize        : 27403

  • Peso: 2.59

Sinopsis

Mune es un pequeño fauno del bosque, quien es inesperadamente seleccionado para ser el nuevo guardián de la Luna, pero ocurre un suceso que pondrá en peligro tanto al Sol como a la Luna, aparte de un Titán que quiere apoderarse del Sol, lo que hace que el equilibrio entre el día y la noche se quiebre. Con la ayuda de Glim, una chica hecha de cera, y de Sohone, el orgulloso guardián del Sol, buscarán salvar al Sol y devolverle a la Luna su lugar en el cielo.

Español Latino AC3 5.1 iTunes – Frances AC3 5.1 BLURAY

Ficha técnica

Video trailer de la película

Enlaces de descarga

Rip de Bluray

Descargar Mune, le gardien de la lune (2015) 1080p Latino




Aportes de DPeliculasHDmega la pass es:dpeliculashdmega.org Aportes de CinemaniaHD la pass es:cinemaniahdd.com
Guardado en : Animación

Películas relacionadas

  • Pato pato Ganso (2018) 1080p Latino

    2018
    Pato pato Ganso (2018) 1080p Latino

    0.0 1h 22m 2018

    Después de que sufrió una lesión, un soltero de alto vuelo se enfrenta a dos huérfanos de ojos muy...

    Director: Christopher Jenkins

    Género: 1080p Portada Negra

    Actores: Zendaya

  • Isla de perros (2018) Full 1080p Latino

    2018
    Isla de perros (2018) Full 1080p Latino

    5.0 1 h 41 min 2018

    Después de que todas las mascotas caninas de Megasaki City sean exiliadas a una isla que es un vertedero,...

    Director: Wes Anderson

    Género: Animación

    Actores: Yoko Ono

  • La muerte de Superman (2018) WEBDL 1080p Latino

    2018
    La muerte de Superman (2018) WEBDL 1080p Latino

    4.8 1h 21m 2018

    Death of Superman (en español La Muerte de Superman) es una película animada de superhéroes de 2018...

    Director: Sam Liu

    Género: Acción

    Actores: Trevor Devall

  • Isla de perros (2018) 1080p Latino

    2018
    Isla de perros (2018) 1080p Latino

    5.0 1 h 41 min 2018

    Después de que todas las mascotas caninas de Megasaki City sean exiliadas a una isla que es un vertedero,...

    Director: Wes Anderson

    Género: 1080p Portada Negra

    Actores: Yoko Ono

Comentarios 7
  • sastru - 13 octubre, 2017

    problemas al descomprimir, sale error. dice que el archivo 3 esta dañado o contraseña incorrecta. (puse las dos contraseñas y descargué dos veces el 3 link)
    Ayuda.
    Gracias

  • Pablo HC - 01 octubre, 2017

    Muchísimas gracias por el aporte… espere mucho tiempo por esta película en latino y hoy la encontré aquí…..