Mucho ruido y pocas nueces (2012) Full 1080p Latino

871 vistas
1 estrella2 estrellas3 estrellas4 estrellas5 estrellas (Ninguna valoración todavía)
Cargando…

Información de Mucho ruido y pocas nueces (2012) Full 1080p Latino

Datos de la película

  • Calidad: Full 1080p
  • Audio: Español Latino AC3 5.1 BLURAY - Ingles DTS 5.1 BLURAY
  • Subtitulos: Español Latino PGS - Ingles PGS
  • Resolución: 1920x1080p
  • Formato: MKV
  • Codec: H.264
  • Encoder: Dracarys
  • Mediainfo: Clic para Mostrar Datos Ver
  • Format                                   : Matroska
    Format version                           : Version 4 / Version 2
    File size                                : 8.49 GiB
    Duration                                 : 1 h 48 min
    Overall bit rate                         : 11.2 Mb/s
    Encoded date                             : UTC 2018-06-19 22:21:02 / UTC 2018-05-28T16:39:11Z
    Writing application                      : mkvmerge v15.0.0 ('Duel with the Devil') 64-bit
    Writing library                          : libebml v1.3.5 + libmatroska v1.4.5 / Lavf57.7.2

    Video
    ID                                       : 1
    Format                                   : AVC
    Format/Info                              : Advanced Video Codec
    Format profile                           : High@L4.1
    Format settings                          : CABAC / 4 Ref Frames
    Format settings, CABAC                   : Yes
    Format settings, RefFrames               : 4 frames
    Codec ID                                 : V_MPEG4/ISO/AVC
    Duration                                 : 1 h 48 min
    Bit rate                                 : 8 981 kb/s
    Width                                    : 1 920 pixels
    Height                                   : 1 080 pixels
    Display aspect ratio                     : 16:9
    Frame rate mode                          : Constant
    Frame rate                               : 23.976 (24000/1001) FPS
    Color space                              : YUV
    Chroma subsampling                       : 4:2:0
    Bit depth                                : 8 bits
    Scan type                                : Progressive
    Bits/(Pixel*Frame)                       : 0.181
    Stream size                              : 6.83 GiB (80%)
    Title                                    : Mucho ruido y pocas nueces (2012) Full 1080p Latino
    Writing library                          : x264 core 148 r2708 86b7198
    Encoding settings                        : cabac=1 / ref=4 / deblock=1:0:0 / analyse=0x3:0x133 / me=esa / subme=9 / psy=1 / psy_rd=1.00:0.00 / mixed_ref=1 / me_range=16 / chroma_me=1 / trellis=2 / 8x8dct=1 / cqm=0 / deadzone=21,11 / fast_pskip=1 / chroma_qp_offset=-2 / threads=34 / lookahead_threads=2 / sliced_threads=0 / nr=0 / decimate=1 / interlaced=0 / bluray_compat=0 / constrained_intra=0 / bframes=3 / b_pyramid=2 / b_adapt=2 / b_bias=0 / direct=3 / weightb=1 / open_gop=0 / weightp=2 / keyint=240 / keyint_min=24 / scenecut=40 / intra_refresh=0 / rc_lookahead=60 / rc=crf / mbtree=1 / crf=20.0 / qcomp=0.60 / qpmin=0 / qpmax=69 / qpstep=4 / vbv_maxrate=62500 / vbv_bufsize=78125 / crf_max=0.0 / nal_hrd=none / filler=0 / ip_ratio=1.40 / aq=1:1.00
    Language                                 : English
    Default                                  : Yes
    Forced                                   : No
    Color range                              : Limited
    Color primaries                          : BT.709
    Transfer characteristics                 : BT.709
    Matrix coefficients                      : BT.709
    Statistics Tags Issue                    : mkvmerge v15.0.0 ('Duel with the Devil') 64-bit 2018-06-19 22:21:02 / mkvmerge v15.0.0 ('Duel with the Devil') 64-bit 2018-06-19 22:21:02 / UTC 2018-05-28T16:39:11Z
    FromStats_BitRate                        : 9175230
    FromStats_Duration                       : 01:48:52.193000000
    FromStats_FrameCount                     : 156616
    FromStats_StreamSize                     : 7491797281

    Audio #1
    ID                                       : 2
    Format                                   : AC-3
    Format/Info                              : Audio Coding 3
    Format settings, Endianness              : Big
    Codec ID                                 : A_AC3
    Duration                                 : 1 h 48 min
    Bit rate mode                            : Constant
    Bit rate                                 : 448 kb/s
    Channel(s)                               : 6 channels
    Channel positions                        : Front: L C R, Side: L R, LFE
    Sampling rate                            : 48.0 kHz
    Frame rate                               : 31.250 FPS (1536 SPF)
    Bit depth                                : 16 bits
    Compression mode                         : Lossy
    Stream size                              : 349 MiB (4%)
    Language                                 : Spanish
    Service kind                             : Complete Main
    Default                                  : Yes
    Forced                                   : No
    Statistics Tags Issue                    : mkvmerge v15.0.0 ('Duel with the Devil') 64-bit 2018-06-19 22:21:02 / mkvmerge v15.0.0 ('Duel with the Devil') 64-bit 2018-06-19 22:21:02 / UTC 2018-05-28T16:39:11Z
    FromStats_BitRate                        : 448000
    FromStats_Duration                       : 01:48:52.224000000
    FromStats_FrameCount                     : 204132
    FromStats_StreamSize                     : 365804544

    Audio #2
    ID                                       : 3
    Format                                   : DTS
    Format/Info                              : Digital Theater Systems
    Mode                                     : 16
    Format settings, Endianness              : Big
    Codec ID                                 : A_DTS
    Duration                                 : 1 h 48 min
    Bit rate mode                            : Constant
    Bit rate                                 : 1 509 kb/s
    Channel(s)                               : 6 channels
    Channel positions                        : Front: L C R, Side: L R, LFE
    Sampling rate                            : 48.0 kHz
    Frame rate                               : 93.750 FPS (512 SPF)
    Bit depth                                : 24 bits
    Compression mode                         : Lossy
    Stream size                              : 1.15 GiB (14%)
    Language                                 : English
    Default                                  : No
    Forced                                   : No
    Statistics Tags Issue                    : mkvmerge v15.0.0 ('Duel with the Devil') 64-bit 2018-06-19 22:21:02 / mkvmerge v15.0.0 ('Duel with the Devil') 64-bit 2018-06-19 22:21:02 / UTC 2018-05-28T16:39:11Z
    FromStats_BitRate                        : 1509000
    FromStats_Duration                       : 01:48:52.192000000
    FromStats_FrameCount                     : 612393
    FromStats_StreamSize                     : 1232134716

    Text #1
    ID                                       : 4
    Format                                   : PGS
    Muxing mode                              : zlib
    Codec ID                                 : S_HDMV/PGS
    Codec ID/Info                            : Picture based subtitle format used on BDs/HD-DVDs
    Language                                 : English
    Default                                  : No
    Forced                                   : No
    Statistics Tags Issue                    : mkvmerge v15.0.0 ('Duel with the Devil') 64-bit 2018-06-19 22:21:02 / mkvmerge v15.0.0 ('Duel with the Devil') 64-bit 2018-06-19 22:21:02 / UTC 2018-05-28T16:39:11Z
    FromStats_BitRate                        : 49258
    FromStats_Duration                       : 01:41:04.934000000
    FromStats_FrameCount                     : 2874
    FromStats_StreamSize                     : 37343647

    Text #2
    ID                                       : 5
    Format                                   : PGS
    Muxing mode                              : zlib
    Codec ID                                 : S_HDMV/PGS
    Codec ID/Info                            : Picture based subtitle format used on BDs/HD-DVDs
    Language                                 : Spanish
    Default                                  : No
    Forced                                   : No
    Statistics Tags Issue                    : mkvmerge v15.0.0 ('Duel with the Devil') 64-bit 2018-06-19 22:21:02 / mkvmerge v15.0.0 ('Duel with the Devil') 64-bit 2018-06-19 22:21:02 / UTC 2018-05-28T16:39:11Z
    FromStats_BitRate                        : 44209
    FromStats_Duration                       : 01:45:54.890000000
    FromStats_FrameCount                     : 2876
    FromStats_StreamSize                     : 35118313

    Menu
    00:00:00.000                             : :Chapter 1
    00:06:36.605                             : :Chapter 2
    00:13:47.952                             : :Chapter 3
    00:19:00.306                             : :Chapter 4
    00:26:27.336                             : :Chapter 5
    00:32:24.901                             : :Chapter 6
    00:38:38.149                             : :Chapter 7
    00:44:45.016                             : :Chapter 8
    00:53:11.397                             : :Chapter 9
    00:58:50.068                             : :Chapter 10
    01:05:20.166                             : :Chapter 11
    01:13:13.306                             : :Chapter 12
    01:19:29.598                             : :Chapter 13
    01:23:51.610                             : :Chapter 14
    01:30:42.729                             : :Chapter 15
    01:45:00.669                             : :Chapter 16

  • Peso: 8.49 GiB

Sinopsis

La película se trata de una nueva versión de la comedia de William Shakespeare “Mucho ruido y pocas nueces”. Leonato (Clark Gregg, ‘Los pingüinos del Sr. Poper’) es el gobernador de la ciudad de Messina , y recibe una invitación de su amigo Don Pedro (Reed Diamond, ‘Moneyball: Rompiendo las reglas’). Don Pedro acaba de volver a casa tras una lucha victoriosa contra su hermano Don John (Sean Maher, ‘Living ‘til the End’), y vuelve acompañado por dos amigos: Claudio (Fran Kranz, ‘Last Weekend’) y Benedick (Alexis Denisof, ‘Little Women, Big Car

Ficha técnica

  • Titulo original: Much Ado About Nothing
  • Fecha de lanzamiento: 08-09-2012 (United States of America)
  • Director: Joss Whedon
  • Género: Comedia, FULL 1080p Plateadas
  • Puntuación: 0.0 0 votos
  • Duración:
    1 h 48 min

Video trailer de la película

Enlaces de descarga

Rip de Bluray

Descargar Mucho ruido y pocas nueces (2012) Full 1080p Latino




Aportes de DPeliculasHDmega la pass es:dpeliculashdmega.org Aportes de CinemaniaHD la pass es:cinemaniahdd.com
Guardado en : Comedia , FULL 1080p Plateadas

Películas relacionadas

  • La Balada de Lefty Brown (2017) Full 1080p Latino

    2017
    La Balada de Lefty Brown (2017) Full 1080p Latino

    1.0 1h 51m 2017

    Descargar La Balada de Lefty Brown (2017) Full 1080p Latino; Mega, Google Drive. Durante décadas, Lefty...

    Director: Jared Moshé

    Género: FULL 1080p Plateadas

    Actores: Tyson Gerhardt

  • El reverendo (2017) Full 1080p Latino

    2018
    El reverendo (2017) Full 1080p Latino

    1.0 1h 53m 2018

    Descargar El reverendo [First Reformed] (2017) 1080p Latino; Mega, Google Drive. El encuentro con un...

    Director: Paul Schrader

    Género: Drama

    Actores: Victoria Hill

  • La brújula dorada (2007) Full 1080p Latino

    2007
    La brújula dorada (2007) Full 1080p Latino

    5.0 1h 53m 2007

    Descargar La brújula dorada (2007) Full 1080p Latino; Mega, Google Drive. Historia de una niña de 12...

    Director: Nikki Clapp

    Género: Aventura

    Actores: Tom Courtenay

  • Mamma Mia! La película (2008) 1080p Latino

    2008
    Mamma Mia! La película (2008) 1080p Latino

    5.0 1h 50m 2008

    Descargar Mamma Mia! La película (2008) 1080p Latino; Mega, Google Drive. Versión cinematográfica...

    Director: Sally Jones

    Género: Comedia

    Actores: Tommy Franzen

  • Mamma Mia: Una y otra vez (2018) 1080p Latino

    2018
    Mamma Mia: Una y otra vez (2018) 1080p Latino

    5.0 2h 0m 2018

    Descargar Mamma Mia: Una y otra vez (2018) 1080p Latino gratis; Mega, google Drive. Esta segunda entrega...

    Director: Ol Parker

    Género: Comedia

    Actores: Togo Igawa

Comentarios 0