Morgan (2016) Full 1080p Latino

1.069 vistas
1 estrella2 estrellas3 estrellas4 estrellas5 estrellas (2 votos, promedio: 3,00 de 5)
Cargando…

Información de Morgan (2016) Full 1080p Latino

Datos de la película

  • Calidad: Full 1080p
  • Audio: Español Latino AC3 5.1 BLURAY - Ingles DTS 5.1 BLURAY
  • Subtitulos: Español Latino PGS - Ingles PGS
  • Resolución: 1920x1080p
  • Formato: MKV
  • Codec: H.264
  • Encoder: Dracarys
  • Mediainfo: Clic para Mostrar Datos Ver
  • Format                                   : Matroska
    Format version                           : Version 4 / Version 2
    File size                                : 3.54 GiB
    Duration                                 : 1 h 31 min
    Overall bit rate                         : 5 515 kb/s
    Movie name                               : CinemaniaHDD.net
    Encoded date                             : UTC 2018-05-29 04:54:24 / UTC 2018-05-28T06:57:10Z
    Writing application                      : mkvmerge v15.0.0 ('Duel with the Devil') 64-bit
    Writing library                          : libebml v1.3.5 + libmatroska v1.4.5 / Lavf57.7.2

    Video
    ID                                       : 1
    Format                                   : AVC
    Format/Info                              : Advanced Video Codec
    Format profile                           : High@L4.1
    Format settings                          : CABAC / 4 Ref Frames
    Format settings, CABAC                   : Yes
    Format settings, RefFrames               : 4 frames
    Codec ID                                 : V_MPEG4/ISO/AVC
    Duration                                 : 1 h 31 min
    Bit rate                                 : 3 448 kb/s
    Width                                    : 1 920 pixels
    Height                                   : 1 080 pixels
    Display aspect ratio                     : 16:9
    Frame rate mode                          : Constant
    Frame rate                               : 23.976 (24000/1001) FPS
    Color space                              : YUV
    Chroma subsampling                       : 4:2:0
    Bit depth                                : 8 bits
    Scan type                                : Progressive
    Bits/(Pixel*Frame)                       : 0.069
    Stream size                              : 2.21 GiB (63%)
    Title                                    : Morgan (2016) Full 1080p Latino
    Writing library                          : x264 core 148 r2708 86b7198
    Encoding settings                        : cabac=1 / ref=4 / deblock=1:0:0 / analyse=0x3:0x133 / me=esa / subme=9 / psy=1 / psy_rd=1.00:0.00 / mixed_ref=1 / me_range=16 / chroma_me=1 / trellis=2 / 8x8dct=1 / cqm=0 / deadzone=21,11 / fast_pskip=1 / chroma_qp_offset=-2 / threads=34 / lookahead_threads=2 / sliced_threads=0 / nr=0 / decimate=1 / interlaced=0 / bluray_compat=0 / constrained_intra=0 / bframes=3 / b_pyramid=2 / b_adapt=2 / b_bias=0 / direct=3 / weightb=1 / open_gop=0 / weightp=2 / keyint=240 / keyint_min=24 / scenecut=40 / intra_refresh=0 / rc_lookahead=60 / rc=crf / mbtree=1 / crf=20.0 / qcomp=0.60 / qpmin=0 / qpmax=69 / qpstep=4 / vbv_maxrate=62500 / vbv_bufsize=78125 / crf_max=0.0 / nal_hrd=none / filler=0 / ip_ratio=1.40 / aq=1:1.00
    Language                                 : English
    Default                                  : Yes
    Forced                                   : No
    Color range                              : Limited
    Color primaries                          : BT.709
    Transfer characteristics                 : BT.709
    Matrix coefficients                      : BT.709
    Statistics Tags Issue                    : mkvmerge v15.0.0 ('Duel with the Devil') 64-bit 2018-05-29 04:54:24 / mkvmerge v15.0.0 ('Duel with the Devil') 64-bit 2018-05-29 04:54:24 / UTC 2018-05-28T06:57:10Z
    FromStats_BitRate                        : 3527939
    FromStats_Duration                       : 01:31:52.674000000
    FromStats_FrameCount                     : 132172
    FromStats_StreamSize                     : 2431047796

    Audio #1
    ID                                       : 2
    Format                                   : AC-3
    Format/Info                              : Audio Coding 3
    Format settings, Endianness              : Big
    Codec ID                                 : A_AC3
    Duration                                 : 1 h 31 min
    Bit rate mode                            : Constant
    Bit rate                                 : 448 kb/s
    Channel(s)                               : 6 channels
    Channel positions                        : Front: L C R, Side: L R, LFE
    Sampling rate                            : 48.0 kHz
    Frame rate                               : 31.250 FPS (1536 SPF)
    Bit depth                                : 16 bits
    Compression mode                         : Lossy
    Stream size                              : 294 MiB (8%)
    Language                                 : Spanish
    Service kind                             : Complete Main
    Default                                  : Yes
    Forced                                   : No
    Statistics Tags Issue                    : mkvmerge v15.0.0 ('Duel with the Devil') 64-bit 2018-05-29 04:54:24 / mkvmerge v15.0.0 ('Duel with the Devil') 64-bit 2018-05-29 04:54:24 / UTC 2018-05-28T06:57:10Z
    FromStats_BitRate                        : 448000
    FromStats_Duration                       : 01:31:52.704000000
    FromStats_FrameCount                     : 172272
    FromStats_StreamSize                     : 308711424

    Audio #2
    ID                                       : 3
    Format                                   : DTS
    Format/Info                              : Digital Theater Systems
    Mode                                     : 16
    Format settings, Endianness              : Big
    Codec ID                                 : A_DTS
    Duration                                 : 1 h 31 min
    Bit rate mode                            : Constant
    Bit rate                                 : 1 509 kb/s
    Channel(s)                               : 6 channels
    Channel positions                        : Front: L C R, Side: L R, LFE
    Sampling rate                            : 48.0 kHz
    Frame rate                               : 93.750 FPS (512 SPF)
    Bit depth                                : 24 bits
    Compression mode                         : Lossy
    Stream size                              : 992 MiB (27%)
    Language                                 : English
    Default                                  : No
    Forced                                   : No
    Statistics Tags Issue                    : mkvmerge v15.0.0 ('Duel with the Devil') 64-bit 2018-05-29 04:54:24 / mkvmerge v15.0.0 ('Duel with the Devil') 64-bit 2018-05-29 04:54:24 / UTC 2018-05-28T06:57:10Z
    FromStats_BitRate                        : 1509000
    FromStats_Duration                       : 01:31:52.672000000
    FromStats_FrameCount                     : 516813
    FromStats_StreamSize                     : 1039827756

    Text #1
    ID                                       : 4
    Format                                   : PGS
    Muxing mode                              : zlib
    Codec ID                                 : S_HDMV/PGS
    Codec ID/Info                            : Picture based subtitle format used on BDs/HD-DVDs
    Language                                 : English
    Default                                  : No
    Forced                                   : No
    Statistics Tags Issue                    : mkvmerge v15.0.0 ('Duel with the Devil') 64-bit 2018-05-29 04:54:24 / mkvmerge v15.0.0 ('Duel with the Devil') 64-bit 2018-05-29 04:54:24 / UTC 2018-05-28T06:57:10Z
    FromStats_BitRate                        : 38063
    FromStats_Duration                       : 01:28:28.261000000
    FromStats_FrameCount                     : 2769
    FromStats_StreamSize                     : 25256630

    Text #2
    ID                                       : 5
    Format                                   : PGS
    Muxing mode                              : zlib
    Codec ID                                 : S_HDMV/PGS
    Codec ID/Info                            : Picture based subtitle format used on BDs/HD-DVDs
    Language                                 : Spanish
    Default                                  : No
    Forced                                   : No
    Statistics Tags Issue                    : mkvmerge v15.0.0 ('Duel with the Devil') 64-bit 2018-05-29 04:54:24 / mkvmerge v15.0.0 ('Duel with the Devil') 64-bit 2018-05-29 04:54:24 / UTC 2018-05-28T06:57:10Z
    FromStats_BitRate                        : 28282
    FromStats_Duration                       : 01:30:59.579000000
    FromStats_FrameCount                     : 2132
    FromStats_StreamSize                     : 19301147

    Menu
    00:00:00.000                             : :Chapter 1
    00:03:43.098                             : :Chapter 2
    00:07:22.400                             : :Chapter 3
    00:11:41.784                             : :Chapter 4
    00:16:04.338                             : :Chapter 5
    00:20:30.271                             : :Chapter 6
    00:25:36.326                             : :Chapter 7
    00:28:45.515                             : :Chapter 8
    00:34:20.267                             : :Chapter 9
    00:37:17.861                             : :Chapter 10
    00:40:46.110                             : :Chapter 11
    00:43:47.125                             : :Chapter 12
    00:48:14.225                             : :Chapter 13
    00:51:28.752                             : :Chapter 14
    00:54:45.991                             : :Chapter 15
    00:59:51.046                             : :Chapter 16
    01:03:44.404                             : :Chapter 17
    01:08:01.619                             : :Chapter 18
    01:11:43.758                             : :Chapter 19
    01:13:46.422                             : :Chapter 20
    01:17:03.702                             : :Chapter 21
    01:20:01.672                             : :Chapter 22
    01:22:32.531                             : :Chapter 23
    01:25:10.939                             : :Chapter 24

  • Peso: 3.54 GiB

Sinopsis

Una compañía tecnológica crea una inteligencia artificial, sin ser conscientes de su verdadero potencial. Cuando las cosas comienzan a salirse de su control, deciden contratar a una especialista (Kate Mara) para determinar si acabar con la criatura o mantenerla encendida.

Ficha técnica

Video trailer de la película

Enlaces de descarga

Rip de Bluray

Descargar Morgan (2016) Full 1080p Latino




Aportes de DPeliculasHDmega la pass es:dpeliculashdmega.org Aportes de CinemaniaHD la pass es:cinemaniahdd.com

Películas relacionadas

Comentarios 0