Miss Peregrine y los niños peculiares (2016) Full 1080p Latino

606 vistas
1 estrella2 estrellas3 estrellas4 estrellas5 estrellas (2 votos, promedio: 3,00 de 5)
Cargando…

Información de Miss Peregrine y los niños peculiares (2016) Full 1080p Latino

Datos de la película

  • Calidad: Full 1080p
  • Audio: Español Latino AC3 5.1 BLURAY - Ingles DTS 5.1 BLURAY
  • Subtitulos: Español Latino PGS - Ingles PGS
  • Resolución: 1920x1080p
  • Formato: MKV
  • Codec: H.264
  • Encoder: Dracarys
  • Mediainfo: Clic para Mostrar Datos Ver
  • Format                                   : Matroska
    Format version                           : Version 4 / Version 2
    File size                                : 5.78 GiB
    Duration                                 : 2 h 6 min
    Overall bit rate                         : 6 524 kb/s
    Movie name                               : CinemaniaHDD.net
    Encoded date                             : UTC 2018-05-29 04:30:16 / UTC 2018-05-28T04:12:20Z
    Writing application                      : mkvmerge v15.0.0 ('Duel with the Devil') 64-bit
    Writing library                          : libebml v1.3.5 + libmatroska v1.4.5 / Lavf57.7.2

    Video
    ID                                       : 1
    Format                                   : AVC
    Format/Info                              : Advanced Video Codec
    Format profile                           : High@L4.1
    Format settings                          : CABAC / 4 Ref Frames
    Format settings, CABAC                   : Yes
    Format settings, RefFrames               : 4 frames
    Codec ID                                 : V_MPEG4/ISO/AVC
    Duration                                 : 2 h 6 min
    Bit rate                                 : 4 437 kb/s
    Width                                    : 1 920 pixels
    Height                                   : 1 080 pixels
    Display aspect ratio                     : 16:9
    Frame rate mode                          : Constant
    Frame rate                               : 23.976 (24000/1001) FPS
    Color space                              : YUV
    Chroma subsampling                       : 4:2:0
    Bit depth                                : 8 bits
    Scan type                                : Progressive
    Bits/(Pixel*Frame)                       : 0.089
    Stream size                              : 3.93 GiB (68%)
    Title                                    : Miss Peregrine y los niños peculiares (2016) Full 1080p Latino
    Writing library                          : x264 core 148 r2708 86b7198
    Encoding settings                        : cabac=1 / ref=4 / deblock=1:0:0 / analyse=0x3:0x133 / me=esa / subme=9 / psy=1 / psy_rd=1.00:0.00 / mixed_ref=1 / me_range=16 / chroma_me=1 / trellis=2 / 8x8dct=1 / cqm=0 / deadzone=21,11 / fast_pskip=1 / chroma_qp_offset=-2 / threads=34 / lookahead_threads=2 / sliced_threads=0 / nr=0 / decimate=1 / interlaced=0 / bluray_compat=0 / constrained_intra=0 / bframes=3 / b_pyramid=2 / b_adapt=2 / b_bias=0 / direct=3 / weightb=1 / open_gop=0 / weightp=2 / keyint=240 / keyint_min=24 / scenecut=40 / intra_refresh=0 / rc_lookahead=60 / rc=crf / mbtree=1 / crf=20.0 / qcomp=0.60 / qpmin=0 / qpmax=69 / qpstep=4 / vbv_maxrate=62500 / vbv_bufsize=78125 / crf_max=0.0 / nal_hrd=none / filler=0 / ip_ratio=1.40 / aq=1:1.00
    Language                                 : English
    Default                                  : Yes
    Forced                                   : No
    Color range                              : Limited
    Color primaries                          : BT.709
    Transfer characteristics                 : BT.709
    Matrix coefficients                      : BT.709
    Statistics Tags Issue                    : mkvmerge v15.0.0 ('Duel with the Devil') 64-bit 2018-05-29 04:30:16 / mkvmerge v15.0.0 ('Duel with the Devil') 64-bit 2018-05-29 04:30:16 / UTC 2018-05-28T04:12:20Z
    FromStats_BitRate                        : 4544802
    FromStats_Duration                       : 02:06:55.650000000
    FromStats_FrameCount                     : 182593
    FromStats_StreamSize                     : 4326452874

    Audio #1
    ID                                       : 2
    Format                                   : AC-3
    Format/Info                              : Audio Coding 3
    Format settings, Endianness              : Big
    Codec ID                                 : A_AC3
    Duration                                 : 2 h 6 min
    Bit rate mode                            : Constant
    Bit rate                                 : 448 kb/s
    Channel(s)                               : 6 channels
    Channel positions                        : Front: L C R, Side: L R, LFE
    Sampling rate                            : 48.0 kHz
    Frame rate                               : 31.250 FPS (1536 SPF)
    Bit depth                                : 16 bits
    Compression mode                         : Lossy
    Stream size                              : 407 MiB (7%)
    Language                                 : Spanish
    Service kind                             : Complete Main
    Default                                  : Yes
    Forced                                   : No
    Statistics Tags Issue                    : mkvmerge v15.0.0 ('Duel with the Devil') 64-bit 2018-05-29 04:30:16 / mkvmerge v15.0.0 ('Duel with the Devil') 64-bit 2018-05-29 04:30:16 / UTC 2018-05-28T04:12:20Z
    FromStats_BitRate                        : 448000
    FromStats_Duration                       : 02:06:55.680000000
    FromStats_FrameCount                     : 237990
    FromStats_StreamSize                     : 426478080

    Audio #2
    ID                                       : 3
    Format                                   : DTS
    Format/Info                              : Digital Theater Systems
    Format profile                           : ES Matrix / Core
    Mode                                     : 16
    Format settings, Endianness              : Big
    Codec ID                                 : A_DTS
    Duration                                 : 2 h 6 min
    Bit rate mode                            : Constant
    Bit rate                                 : 1 509 kb/s
    Channel(s)                               : 7 channels / 6 channels
    Channel positions                        : Front: L C R, Side: L R, Back: C, LFE / Front: L C R, Side: L R, LFE
    Sampling rate                            : 48.0 kHz
    Frame rate                               : 93.750 FPS (512 SPF)
    Bit depth                                : 24 bits
    Compression mode                         : Lossy
    Stream size                              : 1.34 GiB (23%)
    Language                                 : English
    Default                                  : No
    Forced                                   : No
    Statistics Tags Issue                    : mkvmerge v15.0.0 ('Duel with the Devil') 64-bit 2018-05-29 04:30:16 / mkvmerge v15.0.0 ('Duel with the Devil') 64-bit 2018-05-29 04:30:16 / UTC 2018-05-28T04:12:20Z
    FromStats_BitRate                        : 1509000
    FromStats_Duration                       : 02:06:55.648000000
    FromStats_FrameCount                     : 713967
    FromStats_StreamSize                     : 1436501604

    Text #1
    ID                                       : 4
    Format                                   : PGS
    Muxing mode                              : zlib
    Codec ID                                 : S_HDMV/PGS
    Codec ID/Info                            : Picture based subtitle format used on BDs/HD-DVDs
    Language                                 : English
    Default                                  : No
    Forced                                   : No
    Statistics Tags Issue                    : mkvmerge v15.0.0 ('Duel with the Devil') 64-bit 2018-05-29 04:30:16 / mkvmerge v15.0.0 ('Duel with the Devil') 64-bit 2018-05-29 04:30:16 / UTC 2018-05-28T04:12:20Z
    FromStats_BitRate                        : 37114
    FromStats_Duration                       : 02:01:49.010000000
    FromStats_FrameCount                     : 3610
    FromStats_StreamSize                     : 33908636

    Text #2
    ID                                       : 5
    Format                                   : PGS
    Muxing mode                              : zlib
    Codec ID                                 : S_HDMV/PGS
    Codec ID/Info                            : Picture based subtitle format used on BDs/HD-DVDs
    Language                                 : Spanish
    Default                                  : No
    Forced                                   : No
    Statistics Tags Issue                    : mkvmerge v15.0.0 ('Duel with the Devil') 64-bit 2018-05-29 04:30:16 / mkvmerge v15.0.0 ('Duel with the Devil') 64-bit 2018-05-29 04:30:16 / UTC 2018-05-28T04:12:20Z
    FromStats_BitRate                        : 28203
    FromStats_Duration                       : 02:05:46.414000000
    FromStats_FrameCount                     : 2678
    FromStats_StreamSize                     : 26604714

    Menu
    00:00:00.000                             : :Chapter 1
    00:03:40.804                             : :Chapter 2
    00:08:38.018                             : :Chapter 3
    00:13:06.828                             : :Chapter 4
    00:15:26.551                             : :Chapter 5
    00:19:47.478                             : :Chapter 6
    00:23:23.652                             : :Chapter 7
    00:27:47.040                             : :Chapter 8
    00:31:06.448                             : :Chapter 9
    00:34:36.783                             : :Chapter 10
    00:39:34.998                             : :Chapter 11
    00:42:42.810                             : :Chapter 12
    00:46:05.638                             : :Chapter 13
    00:48:36.497                             : :Chapter 14
    00:54:16.462                             : :Chapter 15
    00:57:21.480                             : :Chapter 16
    01:02:03.261                             : :Chapter 17
    01:08:20.847                             : :Chapter 18
    01:14:29.006                             : :Chapter 19
    01:18:54.063                             : :Chapter 20
    01:24:15.300                             : :Chapter 21
    01:28:42.442                             : :Chapter 22
    01:33:11.753                             : :Chapter 23
    01:36:29.033                             : :Chapter 24
    01:40:43.788                             : :Chapter 25
    01:46:09.238                             : :Chapter 26
    01:53:35.309                             : :Chapter 27
    02:00:34.394                             : :Chapter 28

  • Peso: 5.78 GiB

Sinopsis

Una horrible tragedia familiar lleva a Jacob, de 16 años, a viajar por la costa de Gales, donde descubre las ruinas del hogar para niños especiales de Miss Peregrine. Mientras explora los destartalados cuartos y pasillos, se da cuenta que los niños que vivieron allí (uno de los cuales fue su abuelo) eran excepcionales. Quizá eran peligrosos, quizá había una buena razón para ponerlos en cuarentena en una isla desierta; incluso podría ocurrir que todavía estuvieran vivos.

Ficha técnica

Video trailer de la película

Enlaces de descarga

Rip de Bluray

Descargar Miss Peregrine y los niños peculiares (2016) Full 1080p Latino




Aportes de DPeliculasHDmega la pass es:dpeliculashdmega.org Aportes de CinemaniaHD la pass es:cinemaniahdd.com

Películas relacionadas

  • Lady Bird (2017) Full 1080p Latino

    2017
    Lady Bird (2017) Full 1080p Latino

    5.0 1h 34m 2017

    Sacramento, California, año 2002. Una joven llamada Christine McPherson (Saoirse Ronan), apodada como...

    Director: Jonas Spaccarotelli

    Género: Comedia

    Actores: Tracy Letts

  • Plan de escape (2013) Full 1080p Latino

    2013
    Plan de escape (2013) Full 1080p Latino

    3.0 1h 56m 2013

    El experto en seguridad Ray Breslin prueba sus teorías poco convencionales en diseño de prisiones elaborando...

    Director: Mikael Håfström

    Género: Acción

    Actores: Vinnie Jones

  • El sentido de un final (2017) 1080p Latino

    2017
    El sentido de un final (2017) 1080p Latino

    0.0 1h 48m 2017

    Tony Webster, un hombre jubilado y divorciado, mantiene una tranquila y solitaria vida. Un día descubre...

    Director: Ritesh Batra

    Género: 1080p Portada Negra

    Actores: Timothy Innes

Comentarios 0