Metallica: Through the Never (2013) Full 1080p Concierto

1.061 vistas
1 estrella2 estrellas3 estrellas4 estrellas5 estrellas (6 votos, promedio: 3,00 de 5)
Cargando…

Información de Metallica: Through the Never (2013) Full 1080p Concierto

Datos de la película

  • Calidad: Full 1080p
  • Audio: Ingles DTS 5.1 BLURAY
  • Subtitulos: Español Latino PGS - Ingles PGS
  • Resolución: 1920x1080p
  • Formato: MKV
  • Codec: H.264
  • Encoder: Dracarys
  • Mediainfo: Clic para Mostrar Datos Ver
  • Format                                   : Matroska
    Format version                           : Version 4 / Version 2
    File size                                : 6.72 GiB
    Duration                                 : 1 h 32 min
    Overall bit rate                         : 10.4 Mb/s
    Movie name                               : CinemaniaHDD.com
    Encoded date                             : UTC 2018-05-20 04:04:56 / UTC 2018-05-19T22:40:51Z
    Writing application                      : mkvmerge v15.0.0 ('Duel with the Devil') 64-bit
    Writing library                          : libebml v1.3.5 + libmatroska v1.4.5 / Lavf57.7.2

    Video
    ID                                       : 1
    Format                                   : AVC
    Format/Info                              : Advanced Video Codec
    Format profile                           : High@L4.1
    Format settings                          : CABAC / 4 Ref Frames
    Format settings, CABAC                   : Yes
    Format settings, RefFrames               : 4 frames
    Codec ID                                 : V_MPEG4/ISO/AVC
    Duration                                 : 1 h 32 min
    Bit rate                                 : 7 997 kb/s
    Width                                    : 1 920 pixels
    Height                                   : 1 080 pixels
    Display aspect ratio                     : 16:9
    Frame rate mode                          : Constant
    Frame rate                               : 23.976 (24000/1001) FPS
    Color space                              : YUV
    Chroma subsampling                       : 4:2:0
    Bit depth                                : 8 bits
    Scan type                                : Progressive
    Bits/(Pixel*Frame)                       : 0.161
    Stream size                              : 5.19 GiB (77%)
    Title                                    : Metallica: Through the Never (2013) Full 1080p Concierto
    Writing library                          : x264 core 148 r2708 86b7198
    Encoding settings                        : cabac=1 / ref=4 / deblock=1:0:0 / analyse=0x3:0x133 / me=esa / subme=9 / psy=1 / psy_rd=1.00:0.00 / mixed_ref=1 / me_range=16 / chroma_me=1 / trellis=2 / 8x8dct=1 / cqm=0 / deadzone=21,11 / fast_pskip=1 / chroma_qp_offset=-2 / threads=34 / lookahead_threads=2 / sliced_threads=0 / nr=0 / decimate=1 / interlaced=0 / bluray_compat=0 / constrained_intra=0 / bframes=3 / b_pyramid=2 / b_adapt=2 / b_bias=0 / direct=3 / weightb=1 / open_gop=0 / weightp=2 / keyint=240 / keyint_min=24 / scenecut=40 / intra_refresh=0 / rc_lookahead=60 / rc=crf / mbtree=1 / crf=20.0 / qcomp=0.60 / qpmin=0 / qpmax=69 / qpstep=4 / vbv_maxrate=62500 / vbv_bufsize=78125 / crf_max=0.0 / nal_hrd=none / filler=0 / ip_ratio=1.40 / aq=1:1.00
    Language                                 : English
    Default                                  : Yes
    Forced                                   : No
    Color range                              : Limited
    Color primaries                          : BT.709
    Transfer characteristics                 : BT.709
    Matrix coefficients                      : BT.709
    Statistics Tags Issue                    : mkvmerge v15.0.0 ('Duel with the Devil') 64-bit 2018-05-20 04:04:56 / mkvmerge v15.0.0 ('Duel with the Devil') 64-bit 2018-05-20 04:04:56 / UTC 2018-05-19T22:40:51Z
    FromStats_BitRate                        : 8199442
    FromStats_Duration                       : 01:32:55.487000000
    FromStats_FrameCount                     : 133678
    FromStats_StreamSize                     : 5714485795

    Audio #1
    ID                                       : 2
    Format                                   : DTS
    Format/Info                              : Digital Theater Systems
    Mode                                     : 16
    Format settings, Endianness              : Big
    Codec ID                                 : A_DTS
    Duration                                 : 1 h 32 min
    Bit rate mode                            : Constant
    Bit rate                                 : 1 509 kb/s
    Channel(s)                               : 6 channels
    Channel positions                        : Front: L C R, Side: L R, LFE
    Sampling rate                            : 48.0 kHz
    Frame rate                               : 93.750 FPS (512 SPF)
    Bit depth                                : 16 bits
    Compression mode                         : Lossy
    Stream size                              : 1 003 MiB (15%)
    Title                                    : DTS
    Language                                 : English
    Default                                  : Yes
    Forced                                   : No
    Statistics Tags Issue                    : mkvmerge v15.0.0 ('Duel with the Devil') 64-bit 2018-05-20 04:04:56 / mkvmerge v15.0.0 ('Duel with the Devil') 64-bit 2018-05-20 04:04:56 / UTC 2018-05-19T22:40:51Z
    FromStats_BitRate                        : 1509000
    FromStats_Duration                       : 01:32:55.520000000
    FromStats_FrameCount                     : 522705
    FromStats_StreamSize                     : 1051682460

    Audio #2
    ID                                       : 3
    Format                                   : AC-3
    Format/Info                              : Audio Coding 3
    Format settings, Endianness              : Big
    Codec ID                                 : A_AC3
    Duration                                 : 1 h 32 min
    Bit rate mode                            : Constant
    Bit rate                                 : 640 kb/s
    Channel(s)                               : 6 channels
    Channel positions                        : Front: L C R, Side: L R, LFE
    Sampling rate                            : 48.0 kHz
    Frame rate                               : 31.250 FPS (1536 SPF)
    Bit depth                                : 16 bits
    Compression mode                         : Lossy
    Delay relative to video                  : -5 ms
    Stream size                              : 425 MiB (6%)
    Title                                    : AC3
    Language                                 : English
    Service kind                             : Complete Main
    Default                                  : No
    Forced                                   : No
    Statistics Tags Issue                    : mkvmerge v15.0.0 ('Duel with the Devil') 64-bit 2018-05-20 04:04:56 / mkvmerge v15.0.0 ('Duel with the Devil') 64-bit 2018-05-20 04:04:56 / UTC 2018-05-19T22:40:51Z
    FromStats_BitRate                        : 640000
    FromStats_Duration                       : 01:32:55.488000000
    FromStats_FrameCount                     : 174234
    FromStats_StreamSize                     : 446039040

    Text #1
    ID                                       : 4
    Format                                   : PGS
    Muxing mode                              : zlib
    Codec ID                                 : S_HDMV/PGS
    Codec ID/Info                            : Picture based subtitle format used on BDs/HD-DVDs
    Language                                 : Spanish
    Default                                  : Yes
    Forced                                   : Yes
    Statistics Tags Issue                    : mkvmerge v15.0.0 ('Duel with the Devil') 64-bit 2018-05-20 04:04:56 / mkvmerge v15.0.0 ('Duel with the Devil') 64-bit 2018-05-20 04:04:56 / UTC 2018-05-19T22:40:51Z
    FromStats_BitRate                        : 1183
    FromStats_Duration                       : 01:18:23.282000000
    FromStats_FrameCount                     : 56
    FromStats_StreamSize                     : 695871

    Text #2
    ID                                       : 5
    Format                                   : PGS
    Muxing mode                              : zlib
    Codec ID                                 : S_HDMV/PGS
    Codec ID/Info                            : Picture based subtitle format used on BDs/HD-DVDs
    Language                                 : English
    Default                                  : No
    Forced                                   : No
    Statistics Tags Issue                    : mkvmerge v15.0.0 ('Duel with the Devil') 64-bit 2018-05-20 04:04:56 / mkvmerge v15.0.0 ('Duel with the Devil') 64-bit 2018-05-20 04:04:56 / UTC 2018-05-19T22:40:51Z
    FromStats_BitRate                        : 3446
    FromStats_Duration                       : 01:23:34.510000000
    FromStats_FrameCount                     : 238
    FromStats_StreamSize                     : 2160455

    Menu
    00:00:00.000                             : :Chapter 1
    00:05:28.036                             : :Chapter 2
    00:11:11.254                             : :Chapter 3
    00:19:07.313                             : :Chapter 4
    00:19:45.643                             : :Chapter 5
    00:27:28.605                             : :Chapter 6
    00:34:54.634                             : :Chapter 7
    00:40:02.567                             : :Chapter 8
    00:44:36.966                             : :Chapter 9
    00:48:03.631                             : :Chapter 10
    00:54:42.738                             : :Chapter 11
    01:04:03.340                             : :Chapter 12
    01:07:14.948                             : :Chapter 13
    01:12:57.748                             : :Chapter 14
    01:19:18.170                             : :Chapter 15
    01:24:37.614                             : :Chapter 16

  • Peso: 6.72 GiB

Sinopsis

Bajo el nombre homónimo de la séptima canción de su disco ‘The Black Album’:Through The Never, dirigida por el cineasta Nimród Antal, será un largometraje grabado en 3D que pretenderá ir más allá del género documental de otras producciones recientes como U2 3D o Never Say Never, intentando innovar en nuevos conceptos que unan de forma coherente el mundo de la música y el del cine. En el filme veremos a los miembros del grupo: Lars Ulrich, James Hetfield, Kirk Hammett y a Robert Trujillo compartir reparto con el actor revelación Dane DeHaan (Chronicle), quien recientemente se ha incorporado al reparto de The Amazing Spider-Man 2, para interpretar el papel del multimillonario Harry Osborn.

Ficha técnica

  • Titulo original: Metallica: Through the Never
  • Fecha de lanzamiento: 25-09-2013 (United States of America)
  • Director: Nimród Antal
  • Género: FULL 1080p Plateadas, Música
  • Puntuación: 3.0 6 votos
  • Duración:
    1 h 32 min

Video trailer de la película

Enlaces de descarga

Rip de Bluray

Descargar Metallica: Through the Never (2013) Full 1080p Concierto




Aportes de DPeliculasHDmega la pass es:dpeliculashdmega.org Aportes de CinemaniaHD la pass es:cinemaniahdd.com
Guardado en : FULL 1080p Plateadas , Música

Películas relacionadas

  • Lady Bird (2017) Full 1080p Latino

    2017
    Lady Bird (2017) Full 1080p Latino

    5.0 1h 34m 2017

    Sacramento, California, año 2002. Una joven llamada Christine McPherson (Saoirse Ronan), apodada como...

    Director: Jonas Spaccarotelli

    Género: Comedia

    Actores: Tracy Letts

  • Plan de escape (2013) Full 1080p Latino

    2013
    Plan de escape (2013) Full 1080p Latino

    3.0 1h 56m 2013

    El experto en seguridad Ray Breslin prueba sus teorías poco convencionales en diseño de prisiones elaborando...

    Director: Mikael Håfström

    Género: Acción

    Actores: Vinnie Jones

Comentarios 0