Maze Runner: la cura mortal (2018) 1080p Latino

2.795 vistas
1 estrella2 estrellas3 estrellas4 estrellas5 estrellas (4 votos, promedio: 4,75 de 5)
Cargando…

Información de Maze Runner: la cura mortal (2018) 1080p Latino

Datos de la película

  • Calidad: 1080p
  • Audio: Español Latino AC3 5.1 BLURAY - Ingles AC3 5.1 BLURAY
  • Subtitulos: Español Latino SRT
  • Resolución: 1920x800p
  • Formato: MKV
  • Codec: H.264
  • Encoder: Dracarys
  • Mediainfo: Clic para Mostrar Datos Ver
  • Format                                   : Matroska
    Format version                           : Version 4 / Version 2
    File size                                : 4.57 GiB
    Duration                                 : 2 h 23 min
    Overall bit rate                         : 4 549 kb/s
    Movie name                               : CinemaniaHDD.com
    Encoded date                             : UTC 2018-04-12 20:24:47 / UTC 2018-04-12T19:16:28Z
    Writing application                      : mkvmerge v15.0.0 ('Duel with the Devil') 64-bit
    Writing library                          : libebml v1.3.5 + libmatroska v1.4.5 / Lavf57.7.2

    Video
    ID                                       : 1
    Format                                   : AVC
    Format/Info                              : Advanced Video Codec
    Format profile                           : High@L4.1
    Format settings                          : CABAC / 4 Ref Frames
    Format settings, CABAC                   : Yes
    Format settings, RefFrames               : 4 frames
    Codec ID                                 : V_MPEG4/ISO/AVC
    Duration                                 : 2 h 23 min
    Bit rate                                 : 3 500 kb/s
    Width                                    : 1 920 pixels
    Height                                   : 800 pixels
    Display aspect ratio                     : 2.40:1
    Frame rate mode                          : Constant
    Frame rate                               : 23.976 (24000/1001) FPS
    Color space                              : YUV
    Chroma subsampling                       : 4:2:0
    Bit depth                                : 8 bits
    Scan type                                : Progressive
    Bits/(Pixel*Frame)                       : 0.095
    Stream size                              : 3.39 GiB (74%)
    Title                                    : Maze Runner la cura mortal (2018) 1080p Latino
    Writing library                          : x264 core 148 r2708 86b7198
    Encoding settings                        : cabac=1 / ref=3 / deblock=1:0:0 / analyse=0x3:0x113 / me=hex / subme=7 / psy=1 / psy_rd=1.00:0.00 / mixed_ref=1 / me_range=16 / chroma_me=1 / trellis=1 / 8x8dct=1 / cqm=0 / deadzone=21,11 / fast_pskip=1 / chroma_qp_offset=-2 / threads=25 / lookahead_threads=4 / sliced_threads=0 / nr=0 / decimate=1 / interlaced=0 / bluray_compat=0 / constrained_intra=0 / bframes=3 / b_pyramid=2 / b_adapt=1 / b_bias=0 / direct=1 / weightb=1 / open_gop=0 / weightp=2 / keyint=240 / keyint_min=24 / scenecut=40 / intra_refresh=0 / rc_lookahead=40 / rc=abr / mbtree=1 / bitrate=3500 / ratetol=1.0 / qcomp=0.60 / qpmin=0 / qpmax=69 / qpstep=4 / vbv_maxrate=62500 / vbv_bufsize=78125 / nal_hrd=none / filler=0 / ip_ratio=1.40 / aq=1:1.00
    Language                                 : English
    Default                                  : Yes
    Forced                                   : No
    Color range                              : Limited
    Color primaries                          : BT.709
    Transfer characteristics                 : BT.709
    Matrix coefficients                      : BT.709
    Statistics Tags Issue                    : mkvmerge v15.0.0 ('Duel with the Devil') 64-bit 2018-04-12 20:24:47 / mkvmerge v15.0.0 ('Duel with the Devil') 64-bit 2018-04-12 20:24:47 / UTC 2018-04-12T19:16:28Z
    FromStats_BitRate                        : 3458798
    FromStats_Duration                       : 02:23:52.541000000
    FromStats_FrameCount                     : 206974
    FromStats_StreamSize                     : 3732277592

    Audio #1
    ID                                       : 2
    Format                                   : AC-3
    Format/Info                              : Audio Coding 3
    Format settings, Endianness              : Big
    Codec ID                                 : A_AC3
    Duration                                 : 2 h 23 min
    Bit rate mode                            : Constant
    Bit rate                                 : 448 kb/s
    Channel(s)                               : 6 channels
    Channel positions                        : Front: L C R, Side: L R, LFE
    Sampling rate                            : 48.0 kHz
    Frame rate                               : 31.250 FPS (1536 SPF)
    Bit depth                                : 16 bits
    Compression mode                         : Lossy
    Delay relative to video                  : -5 ms
    Stream size                              : 461 MiB (10%)
    Language                                 : Spanish
    Service kind                             : Complete Main
    Default                                  : Yes
    Forced                                   : No
    Statistics Tags Issue                    : mkvmerge v15.0.0 ('Duel with the Devil') 64-bit 2018-04-12 20:24:47 / mkvmerge v15.0.0 ('Duel with the Devil') 64-bit 2018-04-12 20:24:47 / UTC 2018-04-12T19:16:28Z
    FromStats_BitRate                        : 448000
    FromStats_Duration                       : 02:23:52.640000000
    FromStats_FrameCount                     : 269770
    FromStats_StreamSize                     : 483427840

    Audio #2
    ID                                       : 3
    Format                                   : AC-3
    Format/Info                              : Audio Coding 3
    Format settings, Endianness              : Big
    Codec ID                                 : A_AC3
    Duration                                 : 2 h 23 min
    Bit rate mode                            : Constant
    Bit rate                                 : 640 kb/s
    Channel(s)                               : 6 channels
    Channel positions                        : Front: L C R, Side: L R, LFE
    Sampling rate                            : 48.0 kHz
    Frame rate                               : 31.250 FPS (1536 SPF)
    Bit depth                                : 16 bits
    Compression mode                         : Lossy
    Delay relative to video                  : -5 ms
    Stream size                              : 659 MiB (14%)
    Language                                 : English
    Service kind                             : Complete Main
    Default                                  : No
    Forced                                   : No
    Statistics Tags Issue                    : mkvmerge v15.0.0 ('Duel with the Devil') 64-bit 2018-04-12 20:24:47 / mkvmerge v15.0.0 ('Duel with the Devil') 64-bit 2018-04-12 20:24:47 / UTC 2018-04-12T19:16:28Z
    FromStats_BitRate                        : 640000
    FromStats_Duration                       : 02:23:52.608000000
    FromStats_FrameCount                     : 269769
    FromStats_StreamSize                     : 690608640

    Text
    ID                                       : 4
    Format                                   : UTF-8
    Codec ID                                 : S_TEXT/UTF8
    Codec ID/Info                            : UTF-8 Plain Text
    Language                                 : Spanish
    Default                                  : No
    Forced                                   : No
    Statistics Tags Issue                    : mkvmerge v15.0.0 ('Duel with the Devil') 64-bit 2018-04-12 20:24:47 / mkvmerge v15.0.0 ('Duel with the Devil') 64-bit 2018-04-12 20:24:47 / UTC 2018-04-12T19:16:28Z
    FromStats_BitRate                        : 31
    FromStats_Duration                       : 02:15:43.158000000
    FromStats_FrameCount                     : 1391
    FromStats_StreamSize                     : 31951

    Menu
    00:00:00.000                             : :00:00:00.000
    00:11:31.608                             : :00:11:31.608
    00:15:59.750                             : :00:15:59.750
    00:20:08.457                             : :00:20:08.457
    00:24:34.890                             : :00:24:34.890
    00:30:40.547                             : :00:30:40.547
    00:36:47.330                             : :00:36:47.330
    00:43:15.343                             : :00:43:15.343
    00:48:06.342                             : :00:48:06.342
    00:55:17.397                             : :00:55:17.397
    01:02:42.926                             : :01:02:42.926
    01:07:14.489                             : :01:07:14.489
    01:11:56.062                             : :01:11:56.062
    01:15:48.335                             : :01:15:48.210
    01:23:20.329                             : :01:23:20.329
    01:29:45.422                             : :01:29:45.422
    01:34:00.593                             : :01:34:00.593
    01:40:09.795                             : :01:40:09.795
    01:43:33.082                             : :01:43:33.082
    01:53:38.645                             : :01:53:38.645
    01:59:44.010                             : :01:59:43.885
    02:04:49.399                             : :02:04:49.399
    02:10:03.087                             : :02:10:03.087
    02:18:03.901                             : :02:18:03.859

  • Peso: 4.57 GiB

Sinopsis

En este final de saga, Thomas lidera a su grupo en una última misión. Deberán entrar en la legendaria Last City, un laberinto controlado por WCKD que puede llegar a ser el laberinto más mortífero de todos. Cualquier persona que lo supere obtendrá las respuestas a las preguntas y los protagonistas quieren saber lo que realmente sucede.

Ficha técnica

Video trailer de la película

Enlaces de descarga

Rip de Bluray

Descargar Maze Runner: la cura mortal (2018) 1080p Latino




Aportes de DPeliculasHDmega la pass es:dpeliculashdmega.org Aportes de CinemaniaHD la pass es:cinemaniahdd.com

Películas relacionadas

  • El Justiciero (2014) Full 1080p Latino

    2014
    El Justiciero (2014) Full 1080p Latino

    4.0 2 h 12 min 2014

    Robert McCall, un antiguo agente de la CIA que lleva ahora una vida tranquila, abandona su retiro para...

    Director: Deirdre Horgan

    Género: Acción

    Actores: Yan Dron

  • James Bond Live and Let Die (1973) Full 1080p Latino

    1973
    James Bond Live and Let Die (1973) Full 1080p Latino

    0.0 2 h 1 min 1973

    En tan sólo veinticuatro horas, tres agentes del servicio secreto británico que investigaban una red...

    Director: Guy Hamilton

    Género: Acción

    Actores: Yaphet Kotto

Comentarios 2
  • Jrwolf - 13 abril, 2018

    Muchas Gracias!!!
    La Busqué por todos lado y solo la tenían con audio estereo (Latino)
    Y sin los “Molestos” acortadores. Que más parecen Alargadores.
    Y con la Mejor Calidad.
    Gracias!!!

  • Matias - 12 abril, 2018

    Muchas Gracias a descargar… pero también espero la caratula plateada