M.A.S.H. (1970) Full 1080p Latino

498 vistas
1 estrella2 estrellas3 estrellas4 estrellas5 estrellas (Ninguna valoración todavía)
Cargando…

Información de M.A.S.H. (1970) Full 1080p Latino

Datos de la película

  • Calidad: Full 1080p
  • Audio: Español Latino AC3 5.1 BLURAY - Ingles DTS 5.1 BLURAY
  • Subtitulos: Español Latino PGS - Ingles PGS
  • Resolución: 1920x1080p
  • Formato: MKV
  • Codec: H.264
  • Encoder: Dracarys
  • Mediainfo: Clic para Mostrar Datos Ver
  • Format                                   : Matroska
    Format version                           : Version 2
    File size                                : 6.78 GiB
    Duration                                 : 1 h 55 min
    Overall bit rate                         : 8 372 kb/s
    Movie name                               : CinemaniaHDD.net
    Encoded date                             : UTC 2018-07-05 10:15:06 / UTC 2018-06-29T21:03:10Z
    Writing application                      : mkvmerge v5.7.0 ('The Whirlwind') built on Jul  8 2012 20:08:51
    Writing library                          : libebml v1.2.3 + libmatroska v1.3.0 / Lavf57.7.2

    Video
    ID                                       : 1
    Format                                   : AVC
    Format/Info                              : Advanced Video Codec
    Format profile                           : High@L4.1
    Format settings                          : CABAC / 4 Ref Frames
    Format settings, CABAC                   : Yes
    Format settings, RefFrames               : 4 frames
    Muxing mode                              : Header stripping
    Codec ID                                 : V_MPEG4/ISO/AVC
    Duration                                 : 1 h 55 min
    Bit rate                                 : 6 248 kb/s
    Width                                    : 1 920 pixels
    Height                                   : 1 080 pixels
    Display aspect ratio                     : 16:9
    Frame rate mode                          : Constant
    Frame rate                               : 23.976 (24000/1001) FPS
    Color space                              : YUV
    Chroma subsampling                       : 4:2:0
    Bit depth                                : 8 bits
    Scan type                                : Progressive
    Bits/(Pixel*Frame)                       : 0.126
    Stream size                              : 5.06 GiB (75%)
    Title                                    : M.A.S.H. (1970) Full 1080p Latino
    Writing library                          : x264 core 155 r2893 b00bcaf
    Encoding settings                        : cabac=1 / ref=4 / deblock=1:0:0 / analyse=0x3:0x133 / me=esa / subme=10 / psy=1 / psy_rd=1.00:0.00 / mixed_ref=1 / me_range=24 / chroma_me=1 / trellis=2 / 8x8dct=1 / cqm=0 / deadzone=21,11 / fast_pskip=1 / chroma_qp_offset=-2 / threads=24 / lookahead_threads=4 / sliced_threads=0 / nr=0 / decimate=1 / interlaced=0 / bluray_compat=0 / constrained_intra=0 / bframes=8 / b_pyramid=2 / b_adapt=2 / b_bias=0 / direct=3 / weightb=1 / open_gop=0 / weightp=2 / keyint=240 / keyint_min=24 / scenecut=40 / intra_refresh=0 / rc_lookahead=60 / rc=crf / mbtree=1 / crf=20.0 / qcomp=0.60 / qpmin=0 / qpmax=69 / qpstep=4 / vbv_maxrate=62500 / vbv_bufsize=78125 / crf_max=0.0 / nal_hrd=none / filler=0 / ip_ratio=1.40 / aq=1:1.00
    Language                                 : English
    Default                                  : Yes
    Forced                                   : No
    Color range                              : Limited
    Color primaries                          : BT.709
    Transfer characteristics                 : BT.709
    Matrix coefficients                      : BT.709

    Audio #1
    ID                                       : 2
    Format                                   : AC-3
    Format/Info                              : Audio Coding 3
    Format settings, Endianness              : Big
    Muxing mode                              : Header stripping
    Codec ID                                 : A_AC3
    Duration                                 : 1 h 55 min
    Bit rate mode                            : Constant
    Bit rate                                 : 448 kb/s
    Channel(s)                               : 6 channels
    Channel positions                        : Front: L C R, Side: L R, LFE
    Sampling rate                            : 48.0 kHz
    Frame rate                               : 31.250 FPS (1536 SPF)
    Bit depth                                : 16 bits
    Compression mode                         : Lossy
    Stream size                              : 371 MiB (5%)
    Language                                 : Spanish
    Service kind                             : Complete Main
    Default                                  : Yes
    Forced                                   : No

    Audio #2
    ID                                       : 3
    Format                                   : DTS
    Format/Info                              : Digital Theater Systems
    Mode                                     : 16
    Format settings, Endianness              : Big
    Muxing mode                              : Header stripping
    Codec ID                                 : A_DTS
    Duration                                 : 1 h 55 min
    Bit rate mode                            : Constant
    Bit rate                                 : 1 509 kb/s
    Channel(s)                               : 6 channels
    Channel positions                        : Front: L C R, Side: L R, LFE
    Sampling rate                            : 48.0 kHz
    Frame rate                               : 93.750 FPS (512 SPF)
    Bit depth                                : 24 bits
    Compression mode                         : Lossy
    Stream size                              : 1.22 GiB (18%)
    Language                                 : English
    Default                                  : No
    Forced                                   : No

    Text #1
    ID                                       : 4
    Format                                   : PGS
    Muxing mode                              : zlib
    Codec ID                                 : S_HDMV/PGS
    Codec ID/Info                            : Picture based subtitle format used on BDs/HD-DVDs
    Language                                 : English
    Default                                  : No
    Forced                                   : No

    Text #2
    ID                                       : 5
    Format                                   : PGS
    Muxing mode                              : zlib
    Codec ID                                 : S_HDMV/PGS
    Codec ID/Info                            : Picture based subtitle format used on BDs/HD-DVDs
    Language                                 : Spanish
    Default                                  : No
    Forced                                   : No

    Menu
    00:00:00.000                             : :Chapter 1
    00:03:04.685                             : :Chapter 2
    00:05:06.973                             : :Chapter 3
    00:07:09.512                             : :Chapter 4
    00:11:00.493                             : :Chapter 5
    00:13:01.864                             : :Chapter 6
    00:14:26.115                             : :Chapter 7
    00:19:29.752                             : :Chapter 8
    00:24:50.239                             : :Chapter 9
    00:27:48.584                             : :Chapter 10
    00:32:00.293                             : :Chapter 11
    00:36:56.172                             : :Chapter 12
    00:38:01.988                             : :Chapter 13
    00:41:04.295                             : :Chapter 14
    00:45:28.517                             : :Chapter 15
    00:47:28.471                             : :Chapter 16
    00:51:09.483                             : :Chapter 17
    00:55:39.002                             : :Chapter 18
    00:57:51.677                             : :Chapter 19
    01:02:57.482                             : :Chapter 20
    01:06:46.002                             : :Chapter 21
    01:09:10.563                             : :Chapter 22
    01:14:29.632                             : :Chapter 23
    01:15:54.425                             : :Chapter 24
    01:17:17.508                             : :Chapter 25
    01:19:47.032                             : :Chapter 26
    01:22:18.225                             : :Chapter 27
    01:24:12.506                             : :Chapter 28
    01:26:16.588                             : :Chapter 29
    01:28:41.900                             : :Chapter 30
    01:30:03.899                             : :Chapter 31
    01:30:57.410                             : :Chapter 32
    01:35:18.421                             : :Chapter 33
    01:37:19.042                             : :Chapter 34
    01:42:21.927                             : :Chapter 35
    01:43:18.275                             : :Chapter 36
    01:45:34.662                             : :Chapter 37
    01:48:54.862                             : :Chapter 38
    01:52:00.172                             : :Chapter 39
    01:54:41.583                             : :Chapter 40

  • Peso: 6.78 GiB

Sinopsis

M.A.S.H. narra las aventuras de dos cirujanos del ejército destinados a una unidad móvil médica en Corea durante la guerra. Tanto ellos como su equipo de enfermeras se toman el trabajo muy en serio pero, en su tiempo libre, las bromas constantes y la ironía hacen más llevadera la situación.

Ficha técnica

Video trailer de la película

Enlaces de descarga

Rip de Bluray

Descargar M.A.S.H. (1970) Full 1080p Latino




Aportes de DPeliculasHDmega la pass es:dpeliculashdmega.org Aportes de CinemaniaHD la pass es:cinemaniahdd.com

Películas relacionadas

  • ¡Hombre al agua! (2018) 1080p Latino

    2018
    ¡Hombre al agua! (2018) 1080p Latino

    5.0 1 h 52 min 2018

    Kate es una madre soltera, trabajadora, madre de tres hijas, contratada para limpiar un yate de lujo...

    Director: Rob Greenberg

    Género: 1080p Portada Negra

    Actores: Toby Hargrave

  • El alma de la fiesta (2018) 1080p Latino

    2018
    El alma de la fiesta (2018) 1080p Latino

    0.0 1 h 44 min 2018

    Después de haber sido abandonada por su esposo, Deanna, ama de casa, decide darle un giro a su vida...

    Director: Ben Falcone

    Género: Comedia

    Actores: Yani Simone

  • Tully (2018) 1080p Latino

    2018
    Tully (2018) 1080p Latino

    0.0 1 h 35 min 2018

    La historia de una mujer con tres hijos que, incapaz de lidiar con su bebé recién nacido, contrata...

    Director: Jason Reitman

    Género: Comedia

    Actores: Stormy Ent

  • Si solo pudiera imaginar (2018) Full 1080p Latino

    2018
    Si solo pudiera imaginar (2018) Full 1080p Latino

    5.0 1 h 50 min 2018

    La historia real de la aclamada canción "I Can Only Imagine", la canción cristiana contemporánea más...

    Director: Jon Erwin

    Género: Drama

    Actores: Trace Adkins

  • El padre del año (2018) WEB-DL 1080p Latino

    2018
    El padre del año (2018) WEB-DL 1080p Latino

    0.0 1h 34m 2018

    Dos universitarios recién graduados discuten borrachos sobre quién de sus padres ganaría una pelea....

    Director: Tyler Spindel

    Género: Comedia

    Actores: Ralph Ayala

Comentarios 0