Los extraños: Caceria nocturna (2018) WEB-DL 1080p Subtitulado

1.079 vistas
1 estrella2 estrellas3 estrellas4 estrellas5 estrellas (3 votos, promedio: 5,00 de 5)
Cargando…

Información de Los extraños: Caceria nocturna (2018) WEB-DL 1080p Subtitulado

Datos de la película

  • Calidad: WEBDL
  • Audio: Ingles AC3 5.1 iTunes
  • Subtitulos: Español Latino SRT
  • Resolución: 1916x800p
  • Formato: MKV
  • Codec: H.264
  • Encoder: FGT
  • Mediainfo: Clic para Mostrar Datos Ver
  • Format                                   : Matroska
    Format version                           : Version 4 / Version 2
    File size                                : 2.98 GiB
    Duration                                 : 1 h 25 min
    Overall bit rate                         : 4 982 kb/s
    Movie name                               : CinemaniaHDD.NET
    Encoded date                             : UTC 2018-05-23 02:41:01
    Writing application                      : mkvmerge v17.0.0 ('Be Ur Friend') 64-bit
    Writing library                          : libebml v1.3.5 + libmatroska v1.4.8

    Video
    ID                                       : 1
    Format                                   : AVC
    Format/Info                              : Advanced Video Codec
    Format profile                           : High@L4
    Format settings                          : CABAC / 5 Ref Frames
    Format settings, CABAC                   : Yes
    Format settings, RefFrames               : 5 frames
    Codec ID                                 : V_MPEG4/ISO/AVC
    Duration                                 : 1 h 25 min
    Bit rate                                 : 4 596 kb/s
    Width                                    : 1 916 pixels
    Height                                   : 800 pixels
    Display aspect ratio                     : 2.40:1
    Frame rate mode                          : Constant
    Frame rate                               : 23.976 (23976/1000) FPS
    Color space                              : YUV
    Chroma subsampling                       : 4:2:0
    Bit depth                                : 8 bits
    Scan type                                : Progressive
    Bits/(Pixel*Frame)                       : 0.125
    Stream size                              : 2.75 GiB (92%)
    Language                                 : English
    Default                                  : Yes
    Forced                                   : No
    Color range                              : Limited
    Color primaries                          : BT.709
    Transfer characteristics                 : BT.709
    Matrix coefficients                      : BT.709

    Audio
    ID                                       : 2
    Format                                   : AC-3
    Format/Info                              : Audio Coding 3
    Format settings, Endianness              : Big
    Codec ID                                 : A_AC3
    Duration                                 : 1 h 25 min
    Bit rate mode                            : Constant
    Bit rate                                 : 384 kb/s
    Channel(s)                               : 6 channels
    Channel positions                        : Front: L C R, Side: L R, LFE
    Sampling rate                            : 48.0 kHz
    Frame rate                               : 31.250 FPS (1536 SPF)
    Bit depth                                : 16 bits
    Compression mode                         : Lossy
    Delay relative to video                  : -42 ms
    Stream size                              : 235 MiB (8%)
    Language                                 : English
    Service kind                             : Complete Main
    Default                                  : Yes
    Forced                                   : No

    Text
    ID                                       : 3
    Format                                   : UTF-8
    Codec ID                                 : S_TEXT/UTF8
    Codec ID/Info                            : UTF-8 Plain Text
    Duration                                 : 1 h 16 min
    Bit rate                                 : 23 b/s
    Count of elements                        : 555
    Stream size                              : 13.0 KiB (0%)
    Language                                 : Spanish
    Default                                  : Yes
    Forced                                   : No

    Menu
    00:00:00.000                             : en:1
    00:05:00.884                             : en:2
    00:08:50.154                             : en:3
    00:12:59.111                             : en:4
    00:17:24.918                             : en:5
    00:21:54.771                             : en:6
    00:24:54.909                             : en:7
    00:30:16.105                             : en:8
    00:34:46.208                             : en:9
    00:40:02.899                             : en:10
    00:44:49.727                             : en:11
    00:49:49.443                             : en:12
    00:53:13.605                             : en:13
    00:56:56.995                             : en:14
    00:58:21.704                             : en:15
    01:00:38.882                             : en:16
    01:05:22.707                             : en:17
    01:09:18.526                             : en:18
    01:15:00.034                             : en:19
    01:18:08.347                             : en:20

  • Peso: 2.98 GiB

Sinopsis

Una familia que viaje por carretera llega a un parque de caravanas donde esperan reunirse con unos parientes y lo encuentran misteriosamente desierto. En plena noche, tres psicópatas enmascarados llevarán a la familia al límite en una lucha desesperada por sobrevivir.

Ficha técnica

  • Titulo original: The Strangers: Prey at Night
  • Fecha de lanzamiento: 07-03-2018 (United States of America)
  • Director: Ben Barker, Johannes Roberts
  • Género: Suspense, Terror
  • Puntuación: 5.0 3 votos
  • Duración:
    1 h 25 min

Video trailer de la película

Enlaces de descarga

Rip de Bluray

Descargar Los extraños: Caceria nocturna (2018) WEB-DL 1080p Subtitulado




Aportes de DPeliculasHDmega la pass es:dpeliculashdmega.org Aportes de CinemaniaHD la pass es:cinemaniahdd.com
Guardado en : Suspense , Terror

Películas relacionadas

  • Sicario (2015) Full 1080p Latino

    2015
    Sicario (2015) Full 1080p Latino

    5.0 2h 1m 2015

    En la zona fronteriza que se extiende entre Estados Unidos y México la joven Kate Macer, una idealista...

    Director: Judi Townsend

    Género: Acción

    Actores: Victor Garber

  • Fahrenheit 451 (2018) Full 1080p Latino

    2018
    Fahrenheit 451 (2018) Full 1080p Latino

    5.0 1h 36m 2018

    Michael B. Jordan y Michael Shannon protagonizan esta adaptación de HBO de la clásica novela distópica...

    Director: Ramin Bahrani

    Género: Ciencia ficción

    Actores: Tim Post

  • Tiempo de matar (1996) Full 1080p Latino

    1996
    Tiempo de matar (1996) Full 1080p Latino

    5.0 2h 29m 1996

    En una tranquila localidad sureña de Mississippi dos jóvenes borrachos violan salvajemente a una niña...

    Director: William M. Elvin

    Género: Crimen

    Actores: William Truly Jr.

Comentarios 0