Los extraños Cacería nocturna (2018) Full 1080p Subtitulado

1.141 vistas
1 estrella2 estrellas3 estrellas4 estrellas5 estrellas (2 votos, promedio: 5,00 de 5)
Cargando…

Información de Los extraños Cacería nocturna (2018) Full 1080p Subtitulado

Datos de la película

  • Calidad: Full 1080p
  • Audio: Ingles DTS 5.1 BLURAY
  • Subtitulos: Español Latino PGS - Ingles PGS
  • Resolución: 1920x1080p
  • Formato: MKV
  • Codec: H.264
  • Encoder: Dracarys
  • Mediainfo: Clic para Mostrar Datos Ver
  • Format                                   : Matroska
    Format version                           : Version 2
    File size                                : 2.24 GiB
    Duration                                 : 1 h 25 min
    Overall bit rate                         : 3 737 kb/s
    Movie name                               : CinemaniaHDD.net
    Encoded date                             : UTC 2018-07-05 10:10:13 / UTC 2018-07-01T17:31:46Z
    Writing application                      : mkvmerge v5.7.0 ('The Whirlwind') built on Jul  8 2012 20:08:51
    Writing library                          : libebml v1.2.3 + libmatroska v1.3.0 / Lavf57.7.2

    Video
    ID                                       : 1
    Format                                   : AVC
    Format/Info                              : Advanced Video Codec
    Format profile                           : High@L4.1
    Format settings                          : CABAC / 4 Ref Frames
    Format settings, CABAC                   : Yes
    Format settings, RefFrames               : 4 frames
    Muxing mode                              : Header stripping
    Codec ID                                 : V_MPEG4/ISO/AVC
    Duration                                 : 1 h 25 min
    Bit rate                                 : 2 154 kb/s
    Width                                    : 1 920 pixels
    Height                                   : 1 080 pixels
    Display aspect ratio                     : 16:9
    Frame rate mode                          : Constant
    Frame rate                               : 23.976 (24000/1001) FPS
    Color space                              : YUV
    Chroma subsampling                       : 4:2:0
    Bit depth                                : 8 bits
    Scan type                                : Progressive
    Bits/(Pixel*Frame)                       : 0.043
    Stream size                              : 1.29 GiB (58%)
    Title                                    : Los extraños Cacería nocturna (2018) Full 1080p Subtitulado
    Writing library                          : x264 core 155 r2893 b00bcaf
    Encoding settings                        : cabac=1 / ref=4 / deblock=1:0:0 / analyse=0x3:0x133 / me=esa / subme=10 / psy=1 / psy_rd=1.00:0.00 / mixed_ref=1 / me_range=24 / chroma_me=1 / trellis=2 / 8x8dct=1 / cqm=0 / deadzone=21,11 / fast_pskip=1 / chroma_qp_offset=-2 / threads=24 / lookahead_threads=4 / sliced_threads=0 / nr=0 / decimate=1 / interlaced=0 / bluray_compat=0 / constrained_intra=0 / bframes=8 / b_pyramid=2 / b_adapt=2 / b_bias=0 / direct=3 / weightb=1 / open_gop=0 / weightp=2 / keyint=240 / keyint_min=24 / scenecut=40 / intra_refresh=0 / rc_lookahead=60 / rc=crf / mbtree=1 / crf=20.0 / qcomp=0.60 / qpmin=0 / qpmax=69 / qpstep=4 / vbv_maxrate=62500 / vbv_bufsize=78125 / crf_max=0.0 / nal_hrd=none / filler=0 / ip_ratio=1.40 / aq=1:1.00
    Language                                 : English
    Default                                  : Yes
    Forced                                   : No
    Color range                              : Limited
    Color primaries                          : BT.709
    Transfer characteristics                 : BT.709
    Matrix coefficients                      : BT.709

    Audio
    ID                                       : 2
    Format                                   : DTS
    Format/Info                              : Digital Theater Systems
    Mode                                     : 16
    Format settings, Endianness              : Big
    Muxing mode                              : Header stripping
    Codec ID                                 : A_DTS
    Duration                                 : 1 h 25 min
    Bit rate mode                            : Constant
    Bit rate                                 : 1 509 kb/s
    Channel(s)                               : 6 channels
    Channel positions                        : Front: L C R, Side: L R, LFE
    Sampling rate                            : 48.0 kHz
    Frame rate                               : 93.750 FPS (512 SPF)
    Bit depth                                : 24 bits
    Compression mode                         : Lossy
    Stream size                              : 924 MiB (40%)
    Language                                 : English
    Default                                  : Yes
    Forced                                   : No

    Text #1
    ID                                       : 3
    Format                                   : PGS
    Muxing mode                              : zlib
    Codec ID                                 : S_HDMV/PGS
    Codec ID/Info                            : Picture based subtitle format used on BDs/HD-DVDs
    Language                                 : English
    Default                                  : No
    Forced                                   : No

    Text #2
    ID                                       : 4
    Format                                   : PGS
    Muxing mode                              : zlib
    Codec ID                                 : S_HDMV/PGS
    Codec ID/Info                            : Picture based subtitle format used on BDs/HD-DVDs
    Language                                 : Spanish
    Default                                  : Yes
    Forced                                   : Yes

    Menu
    00:00:00.000                             : :Chapter 1
    00:04:59.883                             : :Chapter 2
    00:08:49.154                             : :Chapter 3
    00:12:58.111                             : :Chapter 4
    00:17:23.918                             : :Chapter 5
    00:21:53.771                             : :Chapter 6
    00:24:53.909                             : :Chapter 7
    00:30:15.105                             : :Chapter 8
    00:34:45.250                             : :Chapter 9
    00:40:01.941                             : :Chapter 10
    00:44:48.769                             : :Chapter 11
    00:49:48.486                             : :Chapter 12
    00:53:12.648                             : :Chapter 13
    00:56:56.038                             : :Chapter 14
    00:58:20.747                             : :Chapter 15
    01:00:37.926                             : :Chapter 16
    01:05:21.751                             : :Chapter 17
    01:09:17.570                             : :Chapter 18
    01:14:59.078                             : :Chapter 19
    01:18:07.391                             : :Chapter 20

  • Peso: 2.24 GiB

Sinopsis

Una familia que viaje por carretera llega a un parque de caravanas donde esperan reunirse con unos parientes y lo encuentran misteriosamente desierto. En plena noche, tres psicópatas enmascarados llevarán a la familia al límite en una lucha desesperada por sobrevivir.

Ficha técnica

Video trailer de la película

Enlaces de descarga

Rip de Bluray

Descargar Los extraños Cacería nocturna (2018) Full 1080p Subtitulado




Aportes de DPeliculasHDmega la pass es:dpeliculashdmega.org Aportes de CinemaniaHD la pass es:cinemaniahdd.com

Películas relacionadas

  • Super Troopers 2 (2018) Full 1080p Latino

    2018
    Super Troopers 2 (2018) Full 1080p Latino

    0.0 1 h 39 min 2018

    Regresa la unidad de ley y orden favorita del público. Cuando surge un problema fronterizo internacional...

    Director: Jay Chandrasekhar

    Género: Comedia

    Actores: Will Sasso

  • Isla de perros (2018) Full 1080p Latino

    2018
    Isla de perros (2018) Full 1080p Latino

    5.0 1 h 41 min 2018

    Después de que todas las mascotas caninas de Megasaki City sean exiliadas a una isla que es un vertedero,...

    Director: Wes Anderson

    Género: Animación

    Actores: Yoko Ono

  • Sexy por accidente (2018) Full 1080p Latino

    2018
    Sexy por accidente (2018) Full 1080p Latino

    5.0 1h 51m 2018

    Una chica corriente, que se enfrenta cada día a sus inseguridades, despierta de una caída creyendo...

    Director: Marc Silverstein

    Género: Comedia

    Actores: Yvette Williams

  • Verdad o reto (2018) Full 1080p Latino

    2018
    Verdad o reto (2018) Full 1080p Latino

    3.4 1 h 40 min 2018

    Un grupo de amigos comienza a jugar a "Verdad o atrevimiento", pero rápidamente descubren que algo que...

    Director: Jeff Wadlow

    Género: FULL 1080p Plateadas

    Actores: Violett Beane

  • Los Huerfanos (2017) WEBDL 1080p Latino

    2017
    Los Huerfanos (2017) WEBDL 1080p Latino

    5.0 1h 47m 2017

    Después de la muerte de la madre de Rini, algo perturba a su familia. Remake del film indonesio "Satan's...

    Director: Rieviena Yulieta

    Género: Drama

    Actores: Tara Basro

Comentarios 0