Los extraños Cacería nocturna (2018) Full 1080p Latino | CinemaniaHD - Descargar Peliculas 1080p Mega Google Drive

Los extraños Cacería nocturna (2018) Full 1080p Latino

2.601 vistas
1 estrella2 estrellas3 estrellas4 estrellas5 estrellas (5 votos, promedio: 4,40 de 5)
Cargando…

Información de Los extraños Cacería nocturna (2018) Full 1080p Latino

Datos de la película

  • Calidad: Full 1080p
  • Audio: Español Latino AC3 5.1 DVD - Ingles DTS 5.1 BLURAY
  • Subtitulos: Español Latino PGS - Ingles PGS
  • Resolución: 1920x1080p
  • Formato: MKV
  • Codec: H.264
  • Encoder: Dracarys
  • Mediainfo: Clic para Mostrar Datos Ver
  • Format                                   : Matroska
    Format version                           : Version 4 / Version 2
    File size                                : 2.51 GiB
    Duration                                 : 1 h 25 min
    Overall bit rate                         : 4 188 kb/s
    Movie name                               : CinemaniaHDD.net
    Encoded date                             : UTC 2018-07-19 00:38:46 / UTC 2018-07-01T17:31:46Z
    Writing application                      : mkvmerge v15.0.0 ('Duel with the Devil') 64-bit
    Writing library                          : libebml v1.3.5 + libmatroska v1.4.5 / Lavf57.7.2

    Video
    ID                                       : 1
    Format                                   : AVC
    Format/Info                              : Advanced Video Codec
    Format profile                           : High@L4.1
    Format settings                          : CABAC / 4 Ref Frames
    Format settings, CABAC                   : Yes
    Format settings, RefFrames               : 4 frames
    Codec ID                                 : V_MPEG4/ISO/AVC
    Duration                                 : 1 h 25 min
    Bit rate                                 : 2 148 kb/s
    Width                                    : 1 920 pixels
    Height                                   : 1 080 pixels
    Display aspect ratio                     : 16:9
    Frame rate mode                          : Constant
    Frame rate                               : 23.976 (24000/1001) FPS
    Color space                              : YUV
    Chroma subsampling                       : 4:2:0
    Bit depth                                : 8 bits
    Scan type                                : Progressive
    Bits/(Pixel*Frame)                       : 0.043
    Stream size                              : 1.28 GiB (51%)
    Title                                    : Los extraños Cacería nocturna (2018) Full 1080p Latino
    Writing library                          : x264 core 155 r2893 b00bcaf
    Encoding settings                        : cabac=1 / ref=4 / deblock=1:0:0 / analyse=0x3:0x133 / me=esa / subme=10 / psy=1 / psy_rd=1.00:0.00 / mixed_ref=1 / me_range=24 / chroma_me=1 / trellis=2 / 8x8dct=1 / cqm=0 / deadzone=21,11 / fast_pskip=1 / chroma_qp_offset=-2 / threads=24 / lookahead_threads=4 / sliced_threads=0 / nr=0 / decimate=1 / interlaced=0 / bluray_compat=0 / constrained_intra=0 / bframes=8 / b_pyramid=2 / b_adapt=2 / b_bias=0 / direct=3 / weightb=1 / open_gop=0 / weightp=2 / keyint=240 / keyint_min=24 / scenecut=40 / intra_refresh=0 / rc_lookahead=60 / rc=crf / mbtree=1 / crf=20.0 / qcomp=0.60 / qpmin=0 / qpmax=69 / qpstep=4 / vbv_maxrate=62500 / vbv_bufsize=78125 / crf_max=0.0 / nal_hrd=none / filler=0 / ip_ratio=1.40 / aq=1:1.00
    Language                                 : English
    Default                                  : Yes
    Forced                                   : No
    Color range                              : Limited
    Color primaries                          : BT.709
    Transfer characteristics                 : BT.709
    Matrix coefficients                      : BT.709
    Statistics Tags Issue                    : mkvmerge v15.0.0 ('Duel with the Devil') 64-bit 2018-07-19 00:38:46 / mkvmerge v15.0.0 ('Duel with the Devil') 64-bit 2018-07-19 00:38:46 / UTC 2018-07-01T17:31:46Z
    FromStats_BitRate                        : 2217922
    FromStats_Duration                       : 01:25:37.883000000
    FromStats_FrameCount                     : 123186
    FromStats_StreamSize                     : 1424428182

    Audio #1
    ID                                       : 2
    Format                                   : AC-3
    Format/Info                              : Audio Coding 3
    Format settings, Endianness              : Big
    Codec ID                                 : A_AC3
    Duration                                 : 1 h 25 min
    Bit rate mode                            : Constant
    Bit rate                                 : 448 kb/s
    Channel(s)                               : 6 channels
    Channel positions                        : Front: L C R, Side: L R, LFE
    Sampling rate                            : 48.0 kHz
    Frame rate                               : 31.250 FPS (1536 SPF)
    Bit depth                                : 16 bits
    Compression mode                         : Lossy
    Stream size                              : 274 MiB (11%)
    Language                                 : Spanish
    Service kind                             : Complete Main
    Default                                  : Yes
    Forced                                   : No
    Statistics Tags Issue                    : mkvmerge v15.0.0 ('Duel with the Devil') 64-bit 2018-07-19 00:38:46 / mkvmerge v15.0.0 ('Duel with the Devil') 64-bit 2018-07-19 00:38:46 / UTC 2018-07-01T17:31:46Z
    FromStats_BitRate                        : 448000
    FromStats_Duration                       : 01:25:38.176000000
    FromStats_FrameCount                     : 160568
    FromStats_StreamSize                     : 287737856

    Audio #2
    ID                                       : 3
    Format                                   : DTS
    Format/Info                              : Digital Theater Systems
    Mode                                     : 16
    Format settings, Endianness              : Big
    Codec ID                                 : A_DTS
    Duration                                 : 1 h 25 min
    Bit rate mode                            : Constant
    Bit rate                                 : 1 509 kb/s
    Channel(s)                               : 6 channels
    Channel positions                        : Front: L C R, Side: L R, LFE
    Sampling rate                            : 48.0 kHz
    Frame rate                               : 93.750 FPS (512 SPF)
    Bit depth                                : 24 bits
    Compression mode                         : Lossy
    Stream size                              : 924 MiB (36%)
    Language                                 : English
    Default                                  : No
    Forced                                   : No
    Statistics Tags Issue                    : mkvmerge v15.0.0 ('Duel with the Devil') 64-bit 2018-07-19 00:38:46 / mkvmerge v15.0.0 ('Duel with the Devil') 64-bit 2018-07-19 00:38:46 / UTC 2018-07-01T17:31:46Z
    FromStats_BitRate                        : 1509000
    FromStats_Duration                       : 01:25:37.920000000
    FromStats_FrameCount                     : 481680
    FromStats_StreamSize                     : 969140160

    Text #1
    ID                                       : 4
    Format                                   : UTF-8
    Codec ID                                 : S_TEXT/UTF8
    Codec ID/Info                            : UTF-8 Plain Text
    Title                                    : SRT
    Language                                 : Spanish
    Default                                  : No
    Forced                                   : No
    Statistics Tags Issue                    : mkvmerge v15.0.0 ('Duel with the Devil') 64-bit 2018-07-19 00:38:46 / mkvmerge v15.0.0 ('Duel with the Devil') 64-bit 2018-07-19 00:38:46 / UTC 2018-07-01T17:31:46Z
    FromStats_BitRate                        : 23
    FromStats_Duration                       : 01:16:33.230000000
    FromStats_FrameCount                     : 558
    FromStats_StreamSize                     : 13399

    Text #2
    ID                                       : 5
    Format                                   : PGS
    Muxing mode                              : zlib
    Codec ID                                 : S_HDMV/PGS
    Codec ID/Info                            : Picture based subtitle format used on BDs/HD-DVDs
    Language                                 : English
    Default                                  : No
    Forced                                   : No
    Statistics Tags Issue                    : mkvmerge v15.0.0 ('Duel with the Devil') 64-bit 2018-07-19 00:38:46 / mkvmerge v15.0.0 ('Duel with the Devil') 64-bit 2018-07-19 00:38:46 / UTC 2018-07-01T17:31:46Z
    FromStats_BitRate                        : 23392
    FromStats_Duration                       : 01:16:48.059000000
    FromStats_FrameCount                     : 1663
    FromStats_StreamSize                     : 13474105

    Text #3
    ID                                       : 6
    Format                                   : PGS
    Muxing mode                              : zlib
    Codec ID                                 : S_HDMV/PGS
    Codec ID/Info                            : Picture based subtitle format used on BDs/HD-DVDs
    Language                                 : Spanish
    Default                                  : Yes
    Forced                                   : Yes
    Statistics Tags Issue                    : mkvmerge v15.0.0 ('Duel with the Devil') 64-bit 2018-07-19 00:38:46 / mkvmerge v15.0.0 ('Duel with the Devil') 64-bit 2018-07-19 00:38:46 / UTC 2018-07-01T17:31:46Z
    FromStats_BitRate                        : 13618
    FromStats_Duration                       : 01:21:25.461000000
    FromStats_FrameCount                     : 1115
    FromStats_StreamSize                     : 8316689

    Menu
    00:00:00.000                             : :Chapter 1
    00:04:59.883                             : :Chapter 2
    00:08:49.154                             : :Chapter 3
    00:12:58.111                             : :Chapter 4
    00:17:23.918                             : :Chapter 5
    00:21:53.771                             : :Chapter 6
    00:24:53.909                             : :Chapter 7
    00:30:15.105                             : :Chapter 8
    00:34:45.250                             : :Chapter 9
    00:40:01.941                             : :Chapter 10
    00:44:48.769                             : :Chapter 11
    00:49:48.486                             : :Chapter 12
    00:53:12.648                             : :Chapter 13
    00:56:56.038                             : :Chapter 14
    00:58:20.747                             : :Chapter 15
    01:00:37.926                             : :Chapter 16
    01:05:21.751                             : :Chapter 17
    01:09:17.570                             : :Chapter 18
    01:14:59.078                             : :Chapter 19
    01:18:07.391                             : :Chapter 20

  • Peso: 2.51 GiB

Sinopsis

Una familia que viaje por carretera llega a un parque de caravanas donde esperan reunirse con unos parientes y lo encuentran misteriosamente desierto. En plena noche, tres psicópatas enmascarados llevarán a la familia al límite en una lucha desesperada por sobrevivir.

Ficha técnica

Video trailer de la película

Enlaces de descarga

Rip de Bluray

Descargar Los extraños Cacería nocturna (2018) Full 1080p Latino




Aportes de DPeliculasHDmega la pass es:dpeliculashdmega.org Aportes de CinemaniaHD la pass es:cinemaniahdd.com

Películas relacionadas

  • La jungla (2017) 1080p Latino

    2017
    La jungla (2017) 1080p Latino

    0.0 1h 55m 2017

    Cuenta la historia real de Yossi Ghinsberg, un joven aventurero que vivió para escribir un bestseller...

    Director: Greg McLean

    Género: 1080p Portada Negra

    Actores: Yasmin Kassim

  • V/H/S: (2014) Full 1080p Subtitulado

    2014
    V/H/S: (2014) Full 1080p Subtitulado

    4.2 1 h 21 min 2014

    Un camión está causando el caos en la calle, atropellando a todo aquel que se cruza en su camino. Mientras...

    Director: Todd Lincoln

    Género: FULL 1080p Plateadas

    Actores: Nick Blanco

  • V/H/S Las crónicas del miedo 2 (2013) Full 1080p Latino

    2013
    V/H/S Las crónicas del miedo 2 (2013) Full 1080p Latino

    4.3 1h 35m 2013

    Secuela de V/H/S (2012). Buscando a un estudiante desaparecido, dos investigadores privados irrumpen...

    Director: Timo Tjahjanto

    Género: FULL 1080p Plateadas

    Actores: Samantha Gracie

  • V/H/S Las crónicas del miedo (2012) Full 1080p Latino

    2012
    V/H/S Las crónicas del miedo (2012) Full 1080p Latino

    4.3 1 h 56 min 2012

    Un grupo de matones son contratados por un misterioso sujeto para que vayan a una casa abandonada y encuentren...

    Director: Tyler Gillett

    Género: FULL 1080p Plateadas

    Actores: Tyler Gillett

  • The Hitman’s Bodyguard (2017) Full 1080p Latino

    2017
    The Hitman’s Bodyguard (2017) Full 1080p Latino

    4.3 1 h 58 min 2017

    El prestigioso guardaespaldas Michael Bryce recibe un nuevo cliente: un asesino a sueldo, Darius Kincaid,...

    Director: Stefania Velichkova

    Género: Acción

    Actores: Yuri Kolokolnikov

Comentarios 0