Los Expedientes Secretos X (1994) Temporada 2 Full 1080p Latino

2.377 vistas
1 estrella2 estrellas3 estrellas4 estrellas5 estrellas (2 votos, promedio: 3,00 de 5)
Cargando…

Información de Los Expedientes Secretos X (1994) Temporada 2 Full 1080p Latino

Datos de la película

  • Calidad: Full 1080p
  • Audio: Español Latino AC3 2.0 BLURAY - Ingles AC3 5.1 BLURAY
  • Subtitulos: Español Latino PGS - Ingles PGS
  • Resolución: 1920x1080p
  • Formato: MKV
  • Codec: H.264
  • Encoder: Dpelis
  • Mediainfo: Clic para Mostrar Datos Ver
  • The X-files S02E01 Full 1080p Latino.mkv
    Format                      : Matroska
    Format version              : Version 4 / Version 2
    File size                   : 3.47 GiB
    Duration                    : 45mn 10s
    Overall bit rate            : 11.0 Mbps
    Encoded date                : UTC 2017-05-25 02:11:55 / UTC 2017-05-16T12:40:17Z
    Writing application         : mkvmerge v8.9.0 ('Father Daughter') 64bit
    Writing library             : libebml v1.3.3 + libmatroska v1.4.4 / Lavf57.7.2

    Video
    ID                          : 1
    Format                      : AVC
    Format/Info                 : Advanced Video Codec
    Format profile              : High@L4.1
    Format settings, CABAC      : Yes
    Format settings, ReFrames   : 4 frames
    Codec ID                    : V_MPEG4/ISO/AVC
    Duration                    : 45mn 10s
    Bit rate                    : 10.1 Mbps
    Width                       : 1 920 pixels
    Height                      : 1 080 pixels
    Display aspect ratio        : 16:9
    Frame rate mode             : Constant
    Frame rate                  : 23.976 (24000/1001) fps
    Color space                 : YUV
    Chroma subsampling          : 4:2:0
    Bit depth                   : 8 bits
    Scan type                   : Progressive
    Bits/(Pixel*Frame)          : 0.204
    Stream size                 : 3.19 GiB (92%)
    Writing library             : x264 core 148 r2708 86b7198
    Encoding settings           : cabac=1 / ref=4 / deblock=1:0:0 / analyse=0x3:0x133 / me=esa / subme=9 / psy=1 / psy_rd=1.00:0.00 / mixed_ref=1 / me_range=16 / chroma_me=1 / trellis=2 / 8x8dct=1 / cqm=0 / deadzone=21,11 / fast_pskip=1 / chroma_qp_offset=-2 / threads=34 / lookahead_threads=2 / sliced_threads=0 / nr=0 / decimate=1 / interlaced=0 / bluray_compat=0 / constrained_intra=0 / bframes=3 / b_pyramid=2 / b_adapt=2 / b_bias=0 / direct=3 / weightb=1 / open_gop=0 / weightp=2 / keyint=240 / keyint_min=24 / scenecut=40 / intra_refresh=0 / rc_lookahead=60 / rc=crf / mbtree=1 / crf=20.0 / qcomp=0.60 / qpmin=0 / qpmax=69 / qpstep=4 / vbv_maxrate=62500 / vbv_bufsize=78125 / crf_max=0.0 / nal_hrd=none / filler=0 / ip_ratio=1.40 / aq=1:1.00
    Default                     : Yes
    Forced                      : No
    Color range                 : Limited
    Color primaries             : BT.709
    Transfer characteristics    : BT.709
    Matrix coefficients         : BT.709
    Statistics Tags Issue       : mkvmerge v8.9.0 ('Father Daughter') 64bit 2017-05-25 02:11:55 / mkvmerge v8.9.0 ('Father Daughter') 64bit 2017-05-25 02:11:55 / UTC 2017-05-16T12:40:17Z
    FromStats_BitRate           : 10319193
    FromStats_Duration          : 00:45:10.208000000
    FromStats_FrameCount        : 64980
    FromStats_StreamSize        : 3495895197

    Audio #1
    ID                          : 2
    Format                      : AC-3
    Format/Info                 : Audio Coding 3
    Format profile              : Dolby Digital
    Mode extension              : CM (complete main)
    Format settings, Endianness : Big
    Codec ID                    : A_AC3
    Duration                    : 45mn 10s
    Bit rate mode               : Constant
    Bit rate                    : 224 Kbps
    Channel(s)                  : 2 channels
    Channel positions           : Front: L R
    Sampling rate               : 48.0 KHz
    Frame rate                  : 31.250 fps (1536 spf)
    Compression mode            : Lossy
    Stream size                 : 72.4 MiB (2%)
    Title                       : Stereo
    Language                    : Spanish
    Default                     : Yes
    Forced                      : No
    Statistics Tags Issue       : mkvmerge v8.9.0 ('Father Daughter') 64bit 2017-05-25 02:11:55 / mkvmerge v8.9.0 ('Father Daughter') 64bit 2017-05-25 02:11:55 / UTC 2017-05-16T12:40:17Z
    FromStats_BitRate           : 224000
    FromStats_Duration          : 00:45:10.272000000
    FromStats_FrameCount        : 84696
    FromStats_StreamSize        : 75887616

    Audio #2
    ID                          : 3
    Format                      : AC-3
    Format/Info                 : Audio Coding 3
    Mode extension              : CM (complete main)
    Format settings, Endianness : Big
    Codec ID                    : A_AC3
    Duration                    : 45mn 10s
    Bit rate mode               : Constant
    Bit rate                    : 448 Kbps
    Channel(s)                  : 6 channels
    Channel positions           : Front: L C R, Side: L R, LFE
    Sampling rate               : 48.0 KHz
    Frame rate                  : 31.250 fps (1536 spf)
    Compression mode            : Lossy
    Stream size                 : 145 MiB (4%)
    Title                       : Surround
    Language                    : English
    Default                     : No
    Forced                      : No
    Statistics Tags Issue       : mkvmerge v8.9.0 ('Father Daughter') 64bit 2017-05-25 02:11:55 / mkvmerge v8.9.0 ('Father Daughter') 64bit 2017-05-25 02:11:55 / UTC 2017-05-16T12:40:17Z
    FromStats_BitRate           : 448000
    FromStats_Duration          : 00:45:10.272000000
    FromStats_FrameCount        : 84696
    FromStats_StreamSize        : 151775232

    Text #1
    ID                          : 4
    Format                      : PGS
    Muxing mode                 : zlib
    Codec ID                    : S_HDMV/PGS
    Codec ID/Info               : Picture based subtitle format used on BDs/HD-DVDs
    Language                    : Spanish
    Default                     : No
    Forced                      : No
    Statistics Tags Issue       : mkvmerge v8.9.0 ('Father Daughter') 64bit 2017-05-25 02:11:55 / mkvmerge v8.9.0 ('Father Daughter') 64bit 2017-05-25 02:11:55 / UTC 2017-05-16T12:40:17Z
    FromStats_BitRate           : 8134
    FromStats_Duration          : 00:44:58.446000000
    FromStats_FrameCount        : 722
    FromStats_StreamSize        : 2743834

    Text #2
    ID                          : 5
    Format                      : PGS
    Muxing mode                 : zlib
    Codec ID                    : S_HDMV/PGS
    Codec ID/Info               : Picture based subtitle format used on BDs/HD-DVDs
    Language                    : English
    Default                     : No
    Forced                      : No
    Statistics Tags Issue       : mkvmerge v8.9.0 ('Father Daughter') 64bit 2017-05-25 02:11:55 / mkvmerge v8.9.0 ('Father Daughter') 64bit 2017-05-25 02:11:55 / UTC 2017-05-16T12:40:17Z
    FromStats_BitRate           : 9004
    FromStats_Duration          : 00:44:57.862000000
    FromStats_FrameCount        : 798
    FromStats_StreamSize        : 3036525

    Menu
    00:00:00.000                : :Chapter 1
    00:02:30.901                : :Chapter 2
    00:03:16.446                : :Chapter 3
    00:09:56.304                : :Chapter 4
    00:12:08.353                : :Chapter 5
    00:15:43.776                : :Chapter 6
    00:19:11.817                : :Chapter 7
    00:24:39.436                : :Chapter 8
    00:26:33.842                : :Chapter 9
    00:28:37.925                : :Chapter 10
    00:31:21.004                : :Chapter 11
    00:34:49.212                : :Chapter 12
    00:37:06.349                : :Chapter 13
    00:42:25.835                : :Chapter 14
    00:44:38.050                : :Chapter 15

  • Peso: 3.50 GB Aproximado/Capitulo

Sinopsis

El primer capítulo de la segunda temporada de The X-Files se emitió en Estados Unidos el 16 de septiembre de 1994, y el último episodio de ésta se emitió el 19 de mayo de 1995.

Con los Expedientes X cerrados, Scully ha sido asignada como instructora en la Academia del FBI mientras Mulder hace tediosos trabajos de vigilancia. Después de una reunión con el Senador Matheson, uno de sus informantes y mecenas en lo que concierne a los Expedientes, Mulder desobedece órdenes y se dirige a Arecibo (Puerto Rico), donde un mecanismo de búsqueda de vida alienígena se ha activado inexplicablemente.

Ficha técnica

Video trailer de la película

Enlaces de descarga

Rip de Bluray

Descargar Los Expedientes Secretos X (1994) Temporada 2 Full 1080p Latino




Aportes de DPeliculasHDmega la pass es:dpeliculashdmega.org Aportes de CinemaniaHD la pass es:cinemaniahdd.com

Películas relacionadas

  • Si solo pudiera imaginar (2018) Full 1080p Latino

    2018
    Si solo pudiera imaginar (2018) Full 1080p Latino

    5.0 1 h 50 min 2018

    La historia real de la aclamada canción "I Can Only Imagine", la canción cristiana contemporánea más...

    Director: Jon Erwin

    Género: Drama

    Actores: Trace Adkins

  • El Justiciero (2014) Full 1080p Latino

    2014
    El Justiciero (2014) Full 1080p Latino

    4.0 2 h 12 min 2014

    Robert McCall, un antiguo agente de la CIA que lleva ahora una vida tranquila, abandona su retiro para...

    Director: Deirdre Horgan

    Género: Acción

    Actores: Yan Dron

  • James Bond Live and Let Die (1973) Full 1080p Latino

    1973
    James Bond Live and Let Die (1973) Full 1080p Latino

    0.0 2 h 1 min 1973

    En tan sólo veinticuatro horas, tres agentes del servicio secreto británico que investigaban una red...

    Director: Guy Hamilton

    Género: Acción

    Actores: Yaphet Kotto

Comentarios 10
  • ch2o - 15 septiembre, 2017

    lo subiran a google drive?

    • dpelis - 15 septiembre, 2017

      si es donador puede pedirlo en el paste

  • JUAN IGNACIO PEREZ - 12 junio, 2017

    No entiendo porque borran el comentario si no estoy diciendo nada mal. Cualquiera nos podemos equivocar. Y el episodio 25 esta PINCHADO. Si no lo quieren volver a subir o no lo tienen mas o no lo quieren volver a ripear simplemente diganlo o borren el pinchado, No le hagan bajar a la gente 4 Gb. por nada.
    No es el RAR lo que esta pinchado, sino el MKV, si lo miran en forma binaria se darán cuenta que toda la cabecera que esta al final del archivo NO ESTA.

    • dpelis - 13 junio, 2017

      no he aprobado porque no me ha quedado tiempo de revisar.yo apruebo comentarios cuando los resuelvo, pero por el momento no eh revisado. hasta que lo revise aprobare.disculpa por la tardanza. saluos

  • JUAN IGNACIO PEREZ - 12 junio, 2017

    Esta pinchadisimo el ultimo capitulo, NO el RAR sino el MKV. Por favor resubanlo. Son mas de 80 Gb. y que falte el ultimo 🙁
    Por favor, por favor.

    • dpelis - 25 junio, 2017

      lo resubire, el capitulo 25. gracias por avisar, se reproduce pero no se puede adelantar,

  • Alexis - 30 mayo, 2017

    Amigo tendrás las de NCIS ? 😀

    • dpelis - 30 mayo, 2017

      no estimado,

  • jassiel - 29 mayo, 2017

    y las 4k amigo ? seria genial que las subieras a 4k de unas 10 a 20 gb

    • dpelis - 29 mayo, 2017

      nose si estas series salieron en 4K. por el momento no ripeo 4k