Leyendas de pasión (1994) Full 1080p Latino

893 vistas
1 estrella2 estrellas3 estrellas4 estrellas5 estrellas (3 votos, promedio: 5,00 de 5)
Cargando…

Información de Leyendas de pasión (1994) Full 1080p Latino

Datos de la película

  • Calidad: Full 1080p
  • Audio: Español Latino AC3 5.1 BLURAY - Ingles DTS 5.1 BLURAY
  • Subtitulos: Español Latino PGS - Ingles PGS
  • Resolución: 1920x1080p
  • Formato: MKV
  • Codec: H.264
  • Encoder: Dracarys
  • Mediainfo: Clic para Mostrar Datos Ver
  • Format                                   : Matroska
    Format version                           : Version 4 / Version 2
    File size                                : 13.7 GiB
    Duration                                 : 2 h 12 min
    Overall bit rate                         : 14.7 Mb/s
    Movie name                               : CinemaniaHDD.net
    Encoded date                             : UTC 2018-08-29 21:54:23 / UTC 2018-08-14T20:39:00Z
    Writing application                      : mkvmerge v15.0.0 ('Duel with the Devil') 64-bit
    Writing library                          : libebml v1.3.5 + libmatroska v1.4.5 / Lavf57.7.2

    Video
    ID                                       : 1
    Format                                   : AVC
    Format/Info                              : Advanced Video Codec
    Format profile                           : High@L4.1
    Format settings                          : CABAC / 4 Ref Frames
    Format settings, CABAC                   : Yes
    Format settings, RefFrames               : 4 frames
    Codec ID                                 : V_MPEG4/ISO/AVC
    Duration                                 : 2 h 12 min
    Bit rate                                 : 12.3 Mb/s
    Width                                    : 1 920 pixels
    Height                                   : 1 080 pixels
    Display aspect ratio                     : 16:9
    Frame rate mode                          : Constant
    Frame rate                               : 23.976 (24000/1001) FPS
    Color space                              : YUV
    Chroma subsampling                       : 4:2:0
    Bit depth                                : 8 bits
    Scan type                                : Progressive
    Bits/(Pixel*Frame)                       : 0.248
    Stream size                              : 11.4 GiB (83%)
    Title                                    : Leyendas de pasión (1994) Full 1080p Latino
    Writing library                          : x264 core 148 r2708 86b7198
    Encoding settings                        : cabac=1 / ref=4 / deblock=1:0:0 / analyse=0x3:0x133 / me=esa / subme=10 / psy=1 / psy_rd=1.00:0.00 / mixed_ref=1 / me_range=24 / chroma_me=1 / trellis=2 / 8x8dct=1 / cqm=0 / deadzone=21,11 / fast_pskip=1 / chroma_qp_offset=-2 / threads=34 / lookahead_threads=5 / sliced_threads=0 / nr=0 / decimate=1 / interlaced=0 / bluray_compat=0 / constrained_intra=0 / bframes=8 / b_pyramid=2 / b_adapt=2 / b_bias=0 / direct=3 / weightb=1 / open_gop=0 / weightp=2 / keyint=240 / keyint_min=24 / scenecut=40 / intra_refresh=0 / rc_lookahead=60 / rc=crf / mbtree=1 / crf=20.0 / qcomp=0.60 / qpmin=0 / qpmax=69 / qpstep=4 / vbv_maxrate=62500 / vbv_bufsize=78125 / crf_max=0.0 / nal_hrd=none / filler=0 / ip_ratio=1.40 / aq=1:1.00
    Language                                 : English
    Default                                  : Yes
    Forced                                   : No
    Color range                              : Limited
    Color primaries                          : BT.709
    Transfer characteristics                 : BT.709
    Matrix coefficients                      : BT.709
    Statistics Tags Issue                    : mkvmerge v15.0.0 ('Duel with the Devil') 64-bit 2018-08-29 21:54:23 / mkvmerge v15.0.0 ('Duel with the Devil') 64-bit 2018-08-29 21:54:23 / UTC 2018-08-14T20:39:00Z
    FromStats_BitRate                        : 12581809
    FromStats_Duration                       : 02:12:49.921000000
    FromStats_FrameCount                     : 191087
    FromStats_StreamSize                     : 12534503963

    Audio #1
    ID                                       : 2
    Format                                   : AC-3
    Format/Info                              : Audio Coding 3
    Format settings, Endianness              : Big
    Codec ID                                 : A_AC3
    Duration                                 : 2 h 12 min
    Bit rate mode                            : Constant
    Bit rate                                 : 640 kb/s
    Channel(s)                               : 6 channels
    Channel positions                        : Front: L C R, Side: L R, LFE
    Sampling rate                            : 48.0 kHz
    Frame rate                               : 31.250 FPS (1536 SPF)
    Bit depth                                : 16 bits
    Compression mode                         : Lossy
    Stream size                              : 608 MiB (4%)
    Language                                 : Spanish
    Service kind                             : Complete Main
    Default                                  : Yes
    Forced                                   : No
    Statistics Tags Issue                    : mkvmerge v15.0.0 ('Duel with the Devil') 64-bit 2018-08-29 21:54:23 / mkvmerge v15.0.0 ('Duel with the Devil') 64-bit 2018-08-29 21:54:23 / UTC 2018-08-14T20:39:00Z
    FromStats_BitRate                        : 640000
    FromStats_Duration                       : 02:12:50.016000000
    FromStats_FrameCount                     : 249063
    FromStats_StreamSize                     : 637601280

    Audio #2
    ID                                       : 3
    Format                                   : DTS
    Format/Info                              : Digital Theater Systems
    Mode                                     : 16
    Format settings, Endianness              : Big
    Codec ID                                 : A_DTS
    Duration                                 : 2 h 12 min
    Bit rate mode                            : Constant
    Bit rate                                 : 1 509 kb/s
    Channel(s)                               : 6 channels
    Channel positions                        : Front: L C R, Side: L R, LFE
    Sampling rate                            : 48.0 kHz
    Frame rate                               : 93.750 FPS (512 SPF)
    Bit depth                                : 24 bits
    Compression mode                         : Lossy
    Delay relative to video                  : 21 ms
    Stream size                              : 1.40 GiB (10%)
    Language                                 : English
    Default                                  : No
    Forced                                   : No
    Statistics Tags Issue                    : mkvmerge v15.0.0 ('Duel with the Devil') 64-bit 2018-08-29 21:54:23 / mkvmerge v15.0.0 ('Duel with the Devil') 64-bit 2018-08-29 21:54:23 / UTC 2018-08-14T20:39:00Z
    FromStats_BitRate                        : 1508999
    FromStats_Duration                       : 02:12:49.931000000
    FromStats_FrameCount                     : 747181
    FromStats_StreamSize                     : 1503328172

    Text #1
    ID                                       : 4
    Format                                   : PGS
    Muxing mode                              : zlib
    Codec ID                                 : S_HDMV/PGS
    Codec ID/Info                            : Picture based subtitle format used on BDs/HD-DVDs
    Language                                 : English
    Default                                  : No
    Forced                                   : No
    Statistics Tags Issue                    : mkvmerge v15.0.0 ('Duel with the Devil') 64-bit 2018-08-29 21:54:23 / mkvmerge v15.0.0 ('Duel with the Devil') 64-bit 2018-08-29 21:54:23 / UTC 2018-08-14T20:39:00Z
    FromStats_BitRate                        : 24786
    FromStats_Duration                       : 02:06:50.853000000
    FromStats_FrameCount                     : 2077
    FromStats_StreamSize                     : 23581183

    Text #2
    ID                                       : 5
    Format                                   : PGS
    Muxing mode                              : zlib
    Codec ID                                 : S_HDMV/PGS
    Codec ID/Info                            : Picture based subtitle format used on BDs/HD-DVDs
    Language                                 : Spanish
    Default                                  : No
    Forced                                   : No
    Statistics Tags Issue                    : mkvmerge v15.0.0 ('Duel with the Devil') 64-bit 2018-08-29 21:54:23 / mkvmerge v15.0.0 ('Duel with the Devil') 64-bit 2018-08-29 21:54:23 / UTC 2018-08-14T20:39:00Z
    FromStats_BitRate                        : 21330
    FromStats_Duration                       : 02:07:05.493000000
    FromStats_FrameCount                     : 1976
    FromStats_StreamSize                     : 20331477

    Menu
    00:00:00.000                             : :Chapter 1
    00:08:01.314                             : :Chapter 2
    00:15:00.942                             : :Chapter 3
    00:25:26.233                             : :Chapter 4
    00:34:06.044                             : :Chapter 5
    00:39:51.931                             : :Chapter 6
    00:50:03.459                             : :Chapter 7
    00:56:47.779                             : :Chapter 8
    01:05:58.246                             : :Chapter 9
    01:12:04.028                             : :Chapter 10
    01:22:04.336                             : :Chapter 11
    01:30:28.381                             : :Chapter 12
    01:37:19.208                             : :Chapter 13
    01:41:59.363                             : :Chapter 14
    01:53:30.512                             : :Chapter 15
    02:00:28.430                             : :Chapter 16

  • Peso: 13.7 GiB

Sinopsis

William Ludlow es un coronel abandonado por su mujer que ha criado a sus tres hijos en un gran rancho de Montana, en las colinas de las Montañas Rocosas. La Primera Guerra Mundial y una bella mujer cambiarán el destino de cada uno de ellos para siempre. Sus hijos son el indómito Tristan, el sensato Alfred y el menor Samuel, que acaba de traer al rancho a su bella prometida, Susannah.

Ficha técnica

Video trailer de la película

Enlaces de descarga

Rip de Bluray

Descargar Leyendas de pasión (1994) Full 1080p Latino




Aportes de DPeliculasHDmega la pass es:dpeliculashdmega.org Aportes de CinemaniaHD la pass es:cinemaniahdd.com

Películas relacionadas

  • Fahrenheit 451 (2018) 1080p Latino

    2018
    Fahrenheit 451 (2018) 1080p Latino

    0.0 1h 36m 2018

    Michael B. Jordan y Michael Shannon protagonizan esta adaptación de HBO de la clásica novela distópica...

    Director: Ramin Bahrani

    Género: 1080p Portada Negra

    Actores: Tim Post

  • Mary Poppins (1964) Full 1080p Latino

    1964
    Mary Poppins (1964) Full 1080p Latino

    5.0 2h 19m 1964

    Reinado de Eduardo VII (1901-1910). Una familia inglesa formada por un padre banquero, una madre sufraguista...

    Director: Robert Stevenson

    Género: Comedia

    Actores: Reta Shaw

  • Siberia (2018) Full 1080p Subtitulado

    2018
    Siberia (2018) Full 1080p Subtitulado

    0.0 1h 44m 2018

    Cuando el socio ruso de un tratante de diamantes norteamericano (Keanu Reaves) desaparece, éste viaja...

    Director: Matthew Ross

    Género: Crimen

    Actores: Vladimir Shklyar

  • Los elegidos de la gloria (1983) Full 1080p Latino

    1983
    Los elegidos de la gloria (1983) Full 1080p Latino

    5.0 3 h 12 min 1983

    El libro de Tom Wolfe sobre la historia del programa espacial de los Estados Unidos, se lee como si fuera...

    Director: Philip Kaufman

    Género: Drama

    Actores: William Russ

Comentarios 0