Las Crónicas de Narnia El Príncipe Caspian (2008) Full 1080p Latino | CinemaniaHD - Descargar Peliculas 1080p Mega Google Drive

Las Crónicas de Narnia El Príncipe Caspian (2008) Full 1080p Latino

765 vistas
1 estrella2 estrellas3 estrellas4 estrellas5 estrellas (2 votos, promedio: 5,00 de 5)
Cargando…

Información de Las Crónicas de Narnia El Príncipe Caspian (2008) Full 1080p Latino

Datos de la película

  • Calidad: Full 1080p
  • Audio: Español Latino AC3 5.1 BLURAY - Ingles DTS 5.1 BLURAY
  • Subtitulos: Español Latino PGS - Ingles PGS
  • Resolución: 1920x1080p
  • Formato: MKV
  • Codec: H.264
  • Encoder: Dracarys
  • Mediainfo: Clic para Mostrar Datos Ver
  • Format                                   : Matroska
    Format version                           : Version 4 / Version 2
    File size                                : 9.84 GiB
    Duration                                 : 2 h 29 min
    Overall bit rate                         : 9 397 kb/s
    Movie name                               : CinemaniaHDD.com
    Encoded date                             : UTC 2018-04-04 00:33:44 / UTC 2018-04-01T11:37:59Z
    Writing application                      : mkvmerge v15.0.0 ('Duel with the Devil') 64-bit
    Writing library                          : libebml v1.3.5 + libmatroska v1.4.5 / Lavf57.7.2

    Video
    ID                                       : 1
    Format                                   : AVC
    Format/Info                              : Advanced Video Codec
    Format profile                           : High@L4.1
    Format settings                          : CABAC / 4 Ref Frames
    Format settings, CABAC                   : Yes
    Format settings, RefFrames               : 4 frames
    Codec ID                                 : V_MPEG4/ISO/AVC
    Duration                                 : 2 h 29 min
    Bit rate                                 : 7 061 kb/s
    Width                                    : 1 920 pixels
    Height                                   : 1 080 pixels
    Display aspect ratio                     : 16:9
    Frame rate mode                          : Constant
    Frame rate                               : 23.976 (24000/1001) FPS
    Color space                              : YUV
    Chroma subsampling                       : 4:2:0
    Bit depth                                : 8 bits
    Scan type                                : Progressive
    Bits/(Pixel*Frame)                       : 0.142
    Stream size                              : 7.40 GiB (75%)
    Title                                    : Las Crónicas de Narnia El Príncipe Caspian (2008) Full 1080p Latino
    Writing library                          : x264 core 148 r2708 86b7198
    Encoding settings                        : cabac=1 / ref=4 / deblock=1:0:0 / analyse=0x3:0x133 / me=esa / subme=9 / psy=1 / psy_rd=1.00:0.00 / mixed_ref=1 / me_range=16 / chroma_me=1 / trellis=2 / 8x8dct=1 / cqm=0 / deadzone=21,11 / fast_pskip=1 / chroma_qp_offset=-2 / threads=34 / lookahead_threads=2 / sliced_threads=0 / nr=0 / decimate=1 / interlaced=0 / bluray_compat=0 / constrained_intra=0 / bframes=3 / b_pyramid=2 / b_adapt=2 / b_bias=0 / direct=3 / weightb=1 / open_gop=0 / weightp=2 / keyint=240 / keyint_min=24 / scenecut=40 / intra_refresh=0 / rc_lookahead=60 / rc=crf / mbtree=1 / crf=20.0 / qcomp=0.60 / qpmin=0 / qpmax=69 / qpstep=4 / vbv_maxrate=62500 / vbv_bufsize=78125 / crf_max=0.0 / nal_hrd=none / filler=0 / ip_ratio=1.40 / aq=1:1.00
    Language                                 : English
    Default                                  : Yes
    Forced                                   : No
    Color range                              : Limited
    Color primaries                          : BT.709
    Transfer characteristics                 : BT.709
    Matrix coefficients                      : BT.709
    Statistics Tags Issue                    : mkvmerge v15.0.0 ('Duel with the Devil') 64-bit 2018-04-04 00:33:44 / mkvmerge v15.0.0 ('Duel with the Devil') 64-bit 2018-04-04 00:33:44 / UTC 2018-04-01T11:37:59Z
    FromStats_BitRate                        : 7236402
    FromStats_Duration                       : 02:29:58.615000000
    FromStats_FrameCount                     : 215751
    FromStats_StreamSize                     : 8139699773

    Audio #1
    ID                                       : 2
    Format                                   : AC-3
    Format/Info                              : Audio Coding 3
    Format settings, Endianness              : Big
    Codec ID                                 : A_AC3
    Duration                                 : 2 h 29 min
    Bit rate mode                            : Constant
    Bit rate                                 : 640 kb/s
    Channel(s)                               : 6 channels
    Channel positions                        : Front: L C R, Side: L R, LFE
    Sampling rate                            : 48.0 kHz
    Frame rate                               : 31.250 FPS (1536 SPF)
    Bit depth                                : 16 bits
    Compression mode                         : Lossy
    Stream size                              : 687 MiB (7%)
    Language                                 : Spanish
    Service kind                             : Complete Main
    Default                                  : Yes
    Forced                                   : No
    Statistics Tags Issue                    : mkvmerge v15.0.0 ('Duel with the Devil') 64-bit 2018-04-04 00:33:44 / mkvmerge v15.0.0 ('Duel with the Devil') 64-bit 2018-04-04 00:33:44 / UTC 2018-04-01T11:37:59Z
    FromStats_BitRate                        : 640000
    FromStats_Duration                       : 02:29:58.688000000
    FromStats_FrameCount                     : 281209
    FromStats_StreamSize                     : 719895040

    Audio #2
    ID                                       : 3
    Format                                   : DTS
    Format/Info                              : Digital Theater Systems
    Mode                                     : 16
    Format settings, Endianness              : Big
    Codec ID                                 : A_DTS
    Duration                                 : 2 h 29 min
    Bit rate mode                            : Constant
    Bit rate                                 : 1 509 kb/s
    Channel(s)                               : 6 channels
    Channel positions                        : Front: L C R, Side: L R, LFE
    Sampling rate                            : 48.0 kHz
    Frame rate                               : 93.750 FPS (512 SPF)
    Bit depth                                : 24 bits
    Compression mode                         : Lossy
    Stream size                              : 1.58 GiB (16%)
    Language                                 : English
    Default                                  : No
    Forced                                   : No
    Statistics Tags Issue                    : mkvmerge v15.0.0 ('Duel with the Devil') 64-bit 2018-04-04 00:33:44 / mkvmerge v15.0.0 ('Duel with the Devil') 64-bit 2018-04-04 00:33:44 / UTC 2018-04-01T11:37:59Z
    FromStats_BitRate                        : 1509000
    FromStats_Duration                       : 02:29:58.656000000
    FromStats_FrameCount                     : 843624
    FromStats_StreamSize                     : 1697371488

    Text #1
    ID                                       : 4
    Format                                   : PGS
    Muxing mode                              : zlib
    Codec ID                                 : S_HDMV/PGS
    Codec ID/Info                            : Picture based subtitle format used on BDs/HD-DVDs
    Language                                 : English
    Default                                  : No
    Forced                                   : No
    Statistics Tags Issue                    : mkvmerge v15.0.0 ('Duel with the Devil') 64-bit 2018-04-04 00:33:44 / mkvmerge v15.0.0 ('Duel with the Devil') 64-bit 2018-04-04 00:33:44 / UTC 2018-04-01T11:37:59Z
    FromStats_BitRate                        : 14501
    FromStats_Duration                       : 02:16:47.909000000
    FromStats_FrameCount                     : 2149
    FromStats_StreamSize                     : 14878721

    Text #2
    ID                                       : 5
    Format                                   : PGS
    Muxing mode                              : zlib
    Codec ID                                 : S_HDMV/PGS
    Codec ID/Info                            : Picture based subtitle format used on BDs/HD-DVDs
    Language                                 : Spanish
    Default                                  : No
    Forced                                   : No
    Statistics Tags Issue                    : mkvmerge v15.0.0 ('Duel with the Devil') 64-bit 2018-04-04 00:33:44 / mkvmerge v15.0.0 ('Duel with the Devil') 64-bit 2018-04-04 00:33:44 / UTC 2018-04-01T11:37:59Z
    FromStats_BitRate                        : 12327
    FromStats_Duration                       : 02:16:22.925000000
    FromStats_FrameCount                     : 1810
    FromStats_StreamSize                     : 12608900

    Menu
    00:00:00.000                             : :Chapter 1
    00:08:32.512                             : :Chapter 2
    00:15:51.284                             : :Chapter 3
    00:19:54.568                             : :Chapter 4
    00:27:04.414                             : :Chapter 5
    00:32:57.476                             : :Chapter 6
    00:43:08.920                             : :Chapter 7
    00:46:19.777                             : :Chapter 8
    00:56:13.036                             : :Chapter 9
    01:01:00.198                             : :Chapter 10
    01:04:50.845                             : :Chapter 11
    01:21:40.104                             : :Chapter 12
    01:24:03.497                             : :Chapter 13
    01:25:20.115                             : :Chapter 14
    01:33:54.879                             : :Chapter 15
    01:39:12.613                             : :Chapter 16
    01:51:48.869                             : :Chapter 17
    01:58:46.953                             : :Chapter 18
    02:03:54.344                             : :Chapter 19
    02:06:27.747                             : :Chapter 20
    02:11:15.451                             : :Chapter 21
    02:17:46.383                             : :Chapter 22

  • Peso: 9.84 GiB

Sinopsis

Un año después de los increíbles acontecimientos de “El León, la Bruja y el Armario”, los reyes y las reinas de Narnia -los 4 hermanos Pevensie- vuelven a reunirse en ese remoto y fantástico mundo, donde descubrirán que han pasado más de 1.300 años, calculados en tiempo narniano. Durante su ausencia, la Edad de Oro de Narnia ha terminado, y los Telmarinos han conquistado el reino de Narnia, que ahora está dominado por el malvado Rey Miraz. Los cuatro niños no tardarán en conocer un nuevo y extraño personaje: el joven Príncipe Caspian, heredero legítimo al trono que se ha visto obligado a esconderse ya que su tío Miraz trama su asesinato para colocar a su hijo recién nacido en el trono. Los Narnianos, liderados por los poderosos caballeros Peter y Caspian, se embarcan en un extraordinario viaje para encontrar a Aslan, liberar Narnia del yugo tiránico de Miraz y restaurar la magia y la paz en el territorio.

Ficha técnica

Video trailer de la película

Enlaces de descarga

Rip de Bluray

Descargar Las Crónicas de Narnia El Príncipe Caspian (2008) Full 1080p Latino




Aportes de DPeliculasHDmega la pass es:dpeliculashdmega.org Aportes de CinemaniaHD la pass es:cinemaniahdd.com

Películas relacionadas

  • Ralph El Demoledor (2012) Full 1080p Latino

    2012
    Ralph El Demoledor (2012) Full 1080p Latino

    0.0 1h 41m 2012

    Durante décadas, Ralph ha vivido a la sombra de Repara-Félix Jr., el chico bueno de su videojuego....

    Director: Rob Dressel

    Género: Animación

    Actores: Will Deters

  • La leyenda del gigante de la montaña (2018) 1080p Latino

    2017
    La leyenda del gigante de la montaña (2018) 1080p Latino

    0.0 2h 0m 2017

    Espen "Ash Lad", un pobre hijo de granjero, se embarca en una peligrosa aventura con sus hermanos para...

    Director: Mikkel Brænne Sandemose

    Género: 1080p Portada Negra

    Actores: Vebjørn Enger

  • La jungla (2017) 1080p Latino

    2017
    La jungla (2017) 1080p Latino

    0.0 1h 55m 2017

    Cuenta la historia real de Yossi Ghinsberg, un joven aventurero que vivió para escribir un bestseller...

    Director: Greg McLean

    Género: 1080p Portada Negra

    Actores: Yasmin Kassim

  • Big Fish & Begonia (2018) NF 1080p Latino

    2016
    Big Fish & Begonia (2018) NF 1080p Latino

    0.0 1h 30m 2016

    En un universo más allá del nuestro, Chun celebra su decimosexto aniversario cumpliendo una tradición...

    Director: Zhang Chun

    Género: Animación

    Actores: Zhang Jie

Comentarios 0