Laid in America (2016) 1080p Latino

991 vistas
1 estrella2 estrellas3 estrellas4 estrellas5 estrellas (Ninguna valoración todavía)
Cargando…

Información de Laid in America (2016) 1080p Latino

Datos de la película

  • Calidad: 1080p
  • Audio: Español Latino AC3 2.0 Capturado - Ingles AC3 5.1 BLURAY
  • Subtitulos: No
  • Resolución: 1920X784p
  • Formato: MKV
  • Codec: H.264
  • Encoder: Dracarys
  • Mediainfo: Clic para Mostrar Datos Ver
  • Format                                   : Matroska
    Format version                           : Version 4 / Version 2
    File size                                : 2.56 GiB
    Duration                                 : 1 h 25 min
    Overall bit rate                         : 4 274 kb/s
    Movie name                               : CinemaniaHDD.com
    Encoded date                             : UTC 2018-01-14 00:49:37 / UTC 2018-01-14T00:02:09Z
    Writing application                      : mkvmerge v15.0.0 ('Duel with the Devil') 64-bit
    Writing library                          : libebml v1.3.5 + libmatroska v1.4.5 / Lavf57.7.2

    Video
    ID                                       : 1
    Format                                   : AVC
    Format/Info                              : Advanced Video Codec
    Format profile                           : High@L4.1
    Format settings                          : CABAC / 4 Ref Frames
    Format settings, CABAC                   : Yes
    Format settings, RefFrames               : 4 frames
    Codec ID                                 : V_MPEG4/ISO/AVC
    Duration                                 : 1 h 25 min
    Bit rate                                 : 3 500 kb/s
    Width                                    : 1 920 pixels
    Height                                   : 784 pixels
    Display aspect ratio                     : 2.40:1
    Frame rate mode                          : Constant
    Frame rate                               : 23.976 (24000/1001) FPS
    Color space                              : YUV
    Chroma subsampling                       : 4:2:0
    Bit depth                                : 8 bits
    Scan type                                : Progressive
    Bits/(Pixel*Frame)                       : 0.097
    Stream size                              : 2.01 GiB (79%)
    Title                                    : Laid in America (2016) 1080p Latino
    Writing library                          : x264 core 148 r2708 86b7198
    Encoding settings                        : cabac=1 / ref=3 / deblock=1:0:0 / analyse=0x3:0x113 / me=hex / subme=7 / psy=1 / psy_rd=1.00:0.00 / mixed_ref=1 / me_range=16 / chroma_me=1 / trellis=1 / 8x8dct=1 / cqm=0 / deadzone=21,11 / fast_pskip=1 / chroma_qp_offset=-2 / threads=24 / lookahead_threads=4 / sliced_threads=0 / nr=0 / decimate=1 / interlaced=0 / bluray_compat=0 / constrained_intra=0 / bframes=3 / b_pyramid=2 / b_adapt=1 / b_bias=0 / direct=1 / weightb=1 / open_gop=0 / weightp=2 / keyint=240 / keyint_min=24 / scenecut=40 / intra_refresh=0 / rc_lookahead=40 / rc=abr / mbtree=1 / bitrate=3500 / ratetol=1.0 / qcomp=0.60 / qpmin=0 / qpmax=69 / qpstep=4 / vbv_maxrate=62500 / vbv_bufsize=78125 / nal_hrd=none / filler=0 / ip_ratio=1.40 / aq=1:1.00
    Language                                 : English
    Default                                  : Yes
    Forced                                   : No
    Color range                              : Limited
    Color primaries                          : BT.709
    Transfer characteristics                 : BT.709
    Matrix coefficients                      : BT.709
    Statistics Tags Issue                    : mkvmerge v15.0.0 ('Duel with the Devil') 64-bit 2018-01-14 00:49:37 / mkvmerge v15.0.0 ('Duel with the Devil') 64-bit 2018-01-14 00:49:37 / UTC 2018-01-14T00:02:09Z
    FromStats_BitRate                        : 3440712
    FromStats_Duration                       : 01:25:44.014000000
    FromStats_FrameCount                     : 123333
    FromStats_StreamSize                     : 2212384026

    Audio #1
    ID                                       : 2
    Format                                   : AC-3
    Format/Info                              : Audio Coding 3
    Format settings, Endianness              : Big
    Codec ID                                 : A_AC3
    Duration                                 : 1 h 25 min
    Bit rate mode                            : Constant
    Bit rate                                 : 192 kb/s
    Channel(s)                               : 2 channels
    Channel positions                        : Front: L R
    Sampling rate                            : 48.0 kHz
    Frame rate                               : 31.250 FPS (1536 SPF)
    Bit depth                                : 16 bits
    Compression mode                         : Lossy
    Delay relative to video                  : 795 ms
    Stream size                              : 118 MiB (4%)
    Language                                 : Spanish
    Service kind                             : Complete Main
    Default                                  : Yes
    Forced                                   : No
    Statistics Tags Issue                    : mkvmerge v15.0.0 ('Duel with the Devil') 64-bit 2018-01-14 00:49:37 / mkvmerge v15.0.0 ('Duel with the Devil') 64-bit 2018-01-14 00:49:37 / UTC 2018-01-14T00:02:09Z
    FromStats_BitRate                        : 192000
    FromStats_Duration                       : 01:25:44.192000000
    FromStats_FrameCount                     : 160756
    FromStats_StreamSize                     : 123460608

    Audio #2
    ID                                       : 3
    Format                                   : AC-3
    Format/Info                              : Audio Coding 3
    Format settings, Endianness              : Big
    Codec ID                                 : A_AC3
    Duration                                 : 1 h 25 min
    Bit rate mode                            : Constant
    Bit rate                                 : 640 kb/s
    Channel(s)                               : 6 channels
    Channel positions                        : Front: L C R, Side: L R, LFE
    Sampling rate                            : 48.0 kHz
    Frame rate                               : 31.250 FPS (1536 SPF)
    Bit depth                                : 16 bits
    Compression mode                         : Lossy
    Delay relative to video                  : -5 ms
    Stream size                              : 393 MiB (15%)
    Language                                 : English
    Service kind                             : Complete Main
    Default                                  : No
    Forced                                   : No
    Statistics Tags Issue                    : mkvmerge v15.0.0 ('Duel with the Devil') 64-bit 2018-01-14 00:49:37 / mkvmerge v15.0.0 ('Duel with the Devil') 64-bit 2018-01-14 00:49:37 / UTC 2018-01-14T00:02:09Z
    FromStats_BitRate                        : 640000
    FromStats_Duration                       : 01:25:44.000000000
    FromStats_FrameCount                     : 160750
    FromStats_StreamSize                     : 411520000

     

  • Peso: 2.56 GiB

Sinopsis

Dos estudiantes de intercambio son secuestrados durante su búsqueda para echar un polvo en su última noche en Estados Unidos.

Ficha técnica

  • Titulo original: Laid in America
  • Fecha de lanzamiento: 26-09-2016 (United States of America)
  • Director: Peter Vass, Sam Milman
  • Género: Comedia
  • Puntuación: 0.0 0 votos
  • Duración:
    1h 25m

Video trailer de la película

Enlaces de descarga

Rip de Bluray

Descargar Laid in America (2016) 1080p Latino




Aportes de DPeliculasHDmega la pass es:dpeliculashdmega.org Aportes de CinemaniaHD la pass es:cinemaniahdd.com
Guardado en : Comedia

Películas relacionadas

  • Mary Poppins (1964) Full 1080p Latino

    1964
    Mary Poppins (1964) Full 1080p Latino

    5.0 2h 19m 1964

    Reinado de Eduardo VII (1901-1910). Una familia inglesa formada por un padre banquero, una madre sufraguista...

    Director: Robert Stevenson

    Género: Comedia

    Actores: Reta Shaw

  • Little Bitches (2018) WEBDL 1080p Latino

    2018
    Little Bitches (2018) WEBDL 1080p Latino

    0.0 1h 35m 2018

    Descargar Peliculas 2018 Little Bitches 1080p latino. Tres amigos desde hace mucho tiempo, prometen postularse...

    Director: Nick Kreiss

    Género: Comedia

    Actores: Zachary Knighton

  • Aprendices fuera de línea (2013) Full 1080p Latino

    2013
    Aprendices fuera de línea (2013) Full 1080p Latino

    0.0 2 h 5 min 2013

    Cuando dos cuarentones vendedores de relojes son despedidos de sus respectivos trabajos, convencidos...

    Director: Shawn Levy

    Género: Comedia

    Actores: Zane Stephens

Comentarios 2
  • wilson - 14 enero, 2018

    a mitad de la pelicula hay como unos ruidos pequeños en el audio como si este audio fuera capturado con algun tipo de cable asi q no es audio del dvd es como una captura de la tv o algo asi, no se porq dicen q es DVD eso es una falsa informacion

    • Dpelis2 - 14 enero, 2018

      Perdon el audio si es Capturado! me equivoque el momento de agregar la informacion del audio!
      Gracias por decirnos.