La primera navidad de Mariah y Jack (2017) 1080p Latino

585 vistas
1 estrella2 estrellas3 estrellas4 estrellas5 estrellas (Ninguna valoración todavía)
Cargando…

Información de La primera navidad de Mariah y Jack (2017) 1080p Latino

Datos de la película

  • Calidad: 1080p
  • Audio: Español Latino AC3 2.0 BLURAY - Ingles AC3 5.1 BLURAY
  • Subtitulos: Español Latino PGS - Ingles PGS
  • Resolución: 1920X1080
  • Formato: MKV
  • Codec: H.264
  • Encoder: Dpelis
  • Mediainfo: Clic para Mostrar Datos Ver
  • Format                                   : Matroska
    Format version                           : Version 4 / Version 2
    File size                                : 2.57 GiB
    Duration                                 : 1 h 30 min
    Overall bit rate                         : 4 059 kb/s
    Movie name                               : dpeliculashdmega-org
    Encoded date                             : UTC 2017-11-30 21:05:53 / UTC 2017-11-30T15:59:30Z
    Writing application                      : mkvmerge v15.0.0 ('Duel with the Devil') 64-bit
    Writing library                          : libebml v1.3.5 + libmatroska v1.4.5 / Lavf57.7.2

    Video
    ID                                       : 1
    Format                                   : AVC
    Format/Info                              : Advanced Video Codec
    Format profile                           : High@L4.1
    Format settings                          : CABAC / 4 Ref Frames
    Format settings, CABAC                   : Yes
    Format settings, RefFrames               : 4 frames
    Codec ID                                 : V_MPEG4/ISO/AVC
    Duration                                 : 1 h 30 min
    Bit rate                                 : 3 500 kb/s
    Width                                    : 1 920 pixels
    Height                                   : 1 080 pixels
    Display aspect ratio                     : 16:9
    Frame rate mode                          : Constant
    Frame rate                               : 23.976 (24000/1001) FPS
    Color space                              : YUV
    Chroma subsampling                       : 4:2:0
    Bit depth                                : 8 bits
    Scan type                                : Progressive
    Bits/(Pixel*Frame)                       : 0.070
    Stream size                              : 2.15 GiB (84%)
    Title                                    : La primera navidad de Mariah y Jack (2017) 1080p Latino
    Writing library                          : x264 core 148 r2708 86b7198
    Encoding settings                        : cabac=1 / ref=4 / deblock=1:0:0 / analyse=0x3:0x113 / me=umh / subme=8 / psy=1 / psy_rd=1.00:0.00 / mixed_ref=1 / me_range=16 / chroma_me=1 / trellis=1 / 8x8dct=1 / cqm=0 / deadzone=21,11 / fast_pskip=1 / chroma_qp_offset=-2 / threads=34 / lookahead_threads=5 / sliced_threads=0 / nr=0 / decimate=1 / interlaced=0 / bluray_compat=0 / constrained_intra=0 / bframes=3 / b_pyramid=2 / b_adapt=2 / b_bias=0 / direct=3 / weightb=1 / open_gop=0 / weightp=2 / keyint=240 / keyint_min=24 / scenecut=40 / intra_refresh=0 / rc_lookahead=50 / rc=abr / mbtree=1 / bitrate=3500 / ratetol=1.0 / qcomp=0.60 / qpmin=0 / qpmax=69 / qpstep=4 / vbv_maxrate=62500 / vbv_bufsize=78125 / nal_hrd=none / filler=0 / ip_ratio=1.40 / aq=1:1.00
    Language                                 : English
    Default                                  : Yes
    Forced                                   : No
    Color range                              : Limited
    Color primaries                          : BT.709
    Transfer characteristics                 : BT.709
    Matrix coefficients                      : BT.709
    Statistics Tags Issue                    : mkvmerge v15.0.0 ('Duel with the Devil') 64-bit 2017-11-30 21:05:53 / mkvmerge v15.0.0 ('Duel with the Devil') 64-bit 2017-11-30 21:05:53 / UTC 2017-11-30T15:59:30Z
    FromStats_BitRate                        : 3463030
    FromStats_Duration                       : 01:30:38.600000000
    FromStats_FrameCount                     : 130396
    FromStats_StreamSize                     : 2354254383

    Audio #1
    ID                                       : 2
    Format                                   : AC-3
    Format/Info                              : Audio Coding 3
    Format settings, Endianness              : Big
    Codec ID                                 : A_AC3
    Duration                                 : 1 h 30 min
    Bit rate mode                            : Constant
    Bit rate                                 : 192 kb/s
    Channel(s)                               : 2 channels
    Channel positions                        : Front: L R
    Sampling rate                            : 48.0 kHz
    Frame rate                               : 31.250 FPS (1536 SPF)
    Bit depth                                : 16 bits
    Compression mode                         : Lossy
    Stream size                              : 124 MiB (5%)
    Title                                    : Latino-AC3
    Language                                 : Spanish
    Service kind                             : Complete Main
    Default                                  : Yes
    Forced                                   : No
    Statistics Tags Issue                    : mkvmerge v15.0.0 ('Duel with the Devil') 64-bit 2017-11-30 21:05:53 / mkvmerge v15.0.0 ('Duel with the Devil') 64-bit 2017-11-30 21:05:53 / UTC 2017-11-30T15:59:30Z
    FromStats_BitRate                        : 192000
    FromStats_Duration                       : 01:30:37.920000000
    FromStats_FrameCount                     : 169935
    FromStats_StreamSize                     : 130510080

    Audio #2
    ID                                       : 3
    Format                                   : AC-3
    Format/Info                              : Audio Coding 3
    Format settings, Endianness              : Big
    Codec ID                                 : A_AC3
    Duration                                 : 1 h 30 min
    Bit rate mode                            : Constant
    Bit rate                                 : 384 kb/s
    Channel(s)                               : 6 channels
    Channel positions                        : Front: L C R, Side: L R, LFE
    Sampling rate                            : 48.0 kHz
    Frame rate                               : 31.250 FPS (1536 SPF)
    Bit depth                                : 16 bits
    Compression mode                         : Lossy
    Delay relative to video                  : -5 ms
    Stream size                              : 249 MiB (9%)
    Title                                    : Ingles-AC3
    Language                                 : English
    Service kind                             : Complete Main
    Default                                  : No
    Forced                                   : No
    Statistics Tags Issue                    : mkvmerge v15.0.0 ('Duel with the Devil') 64-bit 2017-11-30 21:05:53 / mkvmerge v15.0.0 ('Duel with the Devil') 64-bit 2017-11-30 21:05:53 / UTC 2017-11-30T15:59:30Z
    FromStats_BitRate                        : 384000
    FromStats_Duration                       : 01:30:38.656000000
    FromStats_FrameCount                     : 169958
    FromStats_StreamSize                     : 261055488

    Text #1
    ID                                       : 4
    Format                                   : PGS
    Muxing mode                              : zlib
    Codec ID                                 : S_HDMV/PGS
    Codec ID/Info                            : Picture based subtitle format used on BDs/HD-DVDs
    Title                                    : Forzados
    Language                                 : Spanish
    Default                                  : Yes
    Forced                                   : Yes
    Statistics Tags Issue                    : mkvmerge v15.0.0 ('Duel with the Devil') 64-bit 2017-11-30 21:05:53 / mkvmerge v15.0.0 ('Duel with the Devil') 64-bit 2017-11-30 21:05:53 / UTC 2017-11-30T15:59:30Z
    FromStats_BitRate                        : 1855
    FromStats_Duration                       : 01:12:54.166000000
    FromStats_FrameCount                     : 154
    FromStats_StreamSize                     : 1014264

    Text #2
    ID                                       : 5
    Format                                   : PGS
    Muxing mode                              : zlib
    Codec ID                                 : S_HDMV/PGS
    Codec ID/Info                            : Picture based subtitle format used on BDs/HD-DVDs
    Language                                 : Spanish
    Default                                  : No
    Forced                                   : No
    Statistics Tags Issue                    : mkvmerge v15.0.0 ('Duel with the Devil') 64-bit 2017-11-30 21:05:53 / mkvmerge v15.0.0 ('Duel with the Devil') 64-bit 2017-11-30 21:05:53 / UTC 2017-11-30T15:59:30Z
    FromStats_BitRate                        : 19978
    FromStats_Duration                       : 01:26:35.154000000
    FromStats_FrameCount                     : 2086
    FromStats_StreamSize                     : 12974075

    Text #3
    ID                                       : 6
    Format                                   : PGS
    Muxing mode                              : zlib
    Codec ID                                 : S_HDMV/PGS
    Codec ID/Info                            : Picture based subtitle format used on BDs/HD-DVDs
    Language                                 : English
    Default                                  : No
    Forced                                   : No
    Statistics Tags Issue                    : mkvmerge v15.0.0 ('Duel with the Devil') 64-bit 2017-11-30 21:05:53 / mkvmerge v15.0.0 ('Duel with the Devil') 64-bit 2017-11-30 21:05:53 / UTC 2017-11-30T15:59:30Z
    FromStats_BitRate                        : 42989
    FromStats_Duration                       : 01:22:27.359000000
    FromStats_FrameCount                     : 2855
    FromStats_StreamSize                     : 26585505

    Menu
    00:00:00.000                             : :Chapter 1
    00:03:50.397                             : :Chapter 2
    00:09:11.134                             : :Chapter 3
    00:13:58.129                             : :Chapter 4
    00:19:01.849                             : :Chapter 5
    00:24:38.310                             : :Chapter 6
    00:29:42.447                             : :Chapter 7
    00:34:11.007                             : :Chapter 8
    00:39:06.427                             : :Chapter 9
    00:44:11.649                             : :Chapter 10
    00:48:18.896                             : :Chapter 11
    00:52:20.095                             : :Chapter 12
    00:57:12.971                             : :Chapter 13
    01:01:25.557                             : :Chapter 14
    01:03:18.336                             : :Chapter 15
    01:07:38.388                             : :Chapter 16
    01:10:43.322                             : :Chapter 17
    01:14:24.877                             : :Chapter 18
    01:20:42.588                             : :Chapter 19
    01:23:32.591                             : :Chapter 20

  • Peso: 2.57 GiB

Sinopsis

La película se centra en la joven Mariah, una niña que sueña con tener un perro para Navidad después de ver a un cachorro llamado Princess en la tienda de mascotas local. Para ver si está lista para la responsabilidad, Mariah tiene la tarea de cuidar a su tío

Ficha técnica

  • Titulo original: Mariah Carey's All I Want for Christmas Is You
  • Fecha de lanzamiento: 14-11-2017 (United States of America)
  • Director: Guy Vasilovich
  • Género: Animación, Familia
  • Puntuación: 0.0 0 votos
  • Duración:
    1 h 30 min

Video trailer de la película

Enlaces de descarga

Rip de Bluray

Descargar La primera navidad de Mariah y Jack (2017) 1080p Latino




Aportes de DPeliculasHDmega la pass es:dpeliculashdmega.org Aportes de CinemaniaHD la pass es:cinemaniahdd.com
Guardado en : Animación , Familia

Películas relacionadas

  • Si solo pudiera imaginar (2018) Full 1080p Latino

    2018
    Si solo pudiera imaginar (2018) Full 1080p Latino

    4.8 1 h 50 min 2018

    La historia real de la aclamada canción "I Can Only Imagine", la canción cristiana contemporánea más...

    Director: Jon Erwin

    Género: Drama

    Actores: Trace Adkins

  • Isla de perros (2018) Full 1080p Latino

    2018
    Isla de perros (2018) Full 1080p Latino

    5.0 1 h 41 min 2018

    Después de que todas las mascotas caninas de Megasaki City sean exiliadas a una isla que es un vertedero,...

    Director: Wes Anderson

    Género: Animación

    Actores: Yoko Ono

  • Un viaje en el tiempo (2018) 4K HDR Latino

    2018
    Un viaje en el tiempo (2018) 4K HDR Latino

    0.0 1 h 49 min 2018

    Tras la desaparición de su padre, un científico, tres seres peculiares envían a la joven Meg, a su...

    Director: Ava DuVernay

    Género: 4K HDR

    Actores: Zach Galifianakis

  • Hoosiers más que ídolos (1986) Full 1080p Latino

    1986
    Hoosiers más que ídolos (1986) Full 1080p Latino

    0.0 2h 0m 1986

    Después de un accidentado pasado, Norman Dale es contratado para entrenar a un equipo de baloncesto....

    Director: Marilyn Bailey

    Género: Drama

    Actores: Wil Dewitt

Comentarios 0