La Pasión de Cristo (2004) Full 1080p Latino

1.453 vistas
1 estrella2 estrellas3 estrellas4 estrellas5 estrellas (Ninguna valoración todavía)
Cargando…

Información de La Pasión de Cristo (2004) Full 1080p Latino

Datos de la película

  • Calidad:
  • Audio: Se especifica abajo de la Sinopsis
  • Subtitulos: Español Latino PGS - Ingles PGS
  • Resolución: 1920x1080p
  • Formato: MKV
  • Codec: H.264
  • Encoder: Dracarys
  • Mediainfo: Clic para Mostrar Datos Ver
  • Format                                   : Matroska
    Format version                           : Version 4 / Version 2
    File size                                : 7.52 GiB
    Duration                                 : 2 h 6 min
    Overall bit rate                         : 8 508 kb/s
    Movie name                               : CinemaniaHDD.com
    Encoded date                             : UTC 2018-03-29 06:02:10 / UTC 2018-03-28T22:15:09Z
    Writing application                      : mkvmerge v15.0.0 ('Duel with the Devil') 64-bit
    Writing library                          : libebml v1.3.5 + libmatroska v1.4.5 / Lavf57.7.2

    Video
    ID                                       : 1
    Format                                   : AVC
    Format/Info                              : Advanced Video Codec
    Format profile                           : High@L4.1
    Format settings                          : CABAC / 4 Ref Frames
    Format settings, CABAC                   : Yes
    Format settings, RefFrames               : 4 frames
    Codec ID                                 : V_MPEG4/ISO/AVC
    Duration                                 : 2 h 6 min
    Bit rate                                 : 6 382 kb/s
    Width                                    : 1 920 pixels
    Height                                   : 1 080 pixels
    Display aspect ratio                     : 16:9
    Frame rate mode                          : Constant
    Frame rate                               : 23.976 (24000/1001) FPS
    Color space                              : YUV
    Chroma subsampling                       : 4:2:0
    Bit depth                                : 8 bits
    Scan type                                : Progressive
    Bits/(Pixel*Frame)                       : 0.128
    Stream size                              : 5.64 GiB (75%)
    Title                                    : La Pasión de Cristo (2004) Full 1080p Latino
    Writing library                          : x264 core 148 r2708 86b7198
    Encoding settings                        : cabac=1 / ref=4 / deblock=1:0:0 / analyse=0x3:0x133 / me=esa / subme=9 / psy=1 / psy_rd=1.00:0.00 / mixed_ref=1 / me_range=16 / chroma_me=1 / trellis=2 / 8x8dct=1 / cqm=0 / deadzone=21,11 / fast_pskip=1 / chroma_qp_offset=-2 / threads=34 / lookahead_threads=2 / sliced_threads=0 / nr=0 / decimate=1 / interlaced=0 / bluray_compat=0 / constrained_intra=0 / bframes=3 / b_pyramid=2 / b_adapt=2 / b_bias=0 / direct=3 / weightb=1 / open_gop=0 / weightp=2 / keyint=240 / keyint_min=24 / scenecut=40 / intra_refresh=0 / rc_lookahead=60 / rc=crf / mbtree=1 / crf=20.0 / qcomp=0.60 / qpmin=0 / qpmax=69 / qpstep=4 / vbv_maxrate=62500 / vbv_bufsize=78125 / crf_max=0.0 / nal_hrd=none / filler=0 / ip_ratio=1.40 / aq=1:1.00
    Default                                  : Yes
    Forced                                   : No
    Color range                              : Limited
    Color primaries                          : BT.709
    Transfer characteristics                 : BT.709
    Matrix coefficients                      : BT.709
    Statistics Tags Issue                    : mkvmerge v15.0.0 ('Duel with the Devil') 64-bit 2018-03-29 06:02:10 / mkvmerge v15.0.0 ('Duel with the Devil') 64-bit 2018-03-29 06:02:10 / UTC 2018-03-28T22:15:09Z
    FromStats_BitRate                        : 6542301
    FromStats_Duration                       : 02:06:32.085000000
    FromStats_FrameCount                     : 182028
    FromStats_StreamSize                     : 6208713524

    Audio #1
    ID                                       : 2
    Format                                   : AC-3
    Format/Info                              : Audio Coding 3
    Format settings, Endianness              : Big
    Codec ID                                 : A_AC3
    Duration                                 : 2 h 6 min
    Bit rate mode                            : Constant
    Bit rate                                 : 448 kb/s
    Channel(s)                               : 6 channels
    Channel positions                        : Front: L C R, Side: L R, LFE
    Sampling rate                            : 48.0 kHz
    Frame rate                               : 31.250 FPS (1536 SPF)
    Bit depth                                : 16 bits
    Compression mode                         : Lossy
    Stream size                              : 405 MiB (5%)
    Title                                    : Latino AC3 5.1
    Language                                 : Spanish
    Service kind                             : Complete Main
    Default                                  : Yes
    Forced                                   : No
    Statistics Tags Issue                    : mkvmerge v15.0.0 ('Duel with the Devil') 64-bit 2018-03-29 06:02:10 / mkvmerge v15.0.0 ('Duel with the Devil') 64-bit 2018-03-29 06:02:10 / UTC 2018-03-28T22:15:09Z
    FromStats_BitRate                        : 448000
    FromStats_Duration                       : 02:06:24.544000000
    FromStats_FrameCount                     : 237017
    FromStats_StreamSize                     : 424734464

    Audio #2
    ID                                       : 3
    Format                                   : DTS
    Format/Info                              : Digital Theater Systems
    Mode                                     : 16
    Format settings, Endianness              : Big
    Codec ID                                 : A_DTS
    Duration                                 : 2 h 6 min
    Bit rate mode                            : Constant
    Bit rate                                 : 1 509 kb/s
    Channel(s)                               : 6 channels
    Channel positions                        : Front: L C R, Side: L R, LFE
    Sampling rate                            : 48.0 kHz
    Frame rate                               : 93.750 FPS (512 SPF)
    Bit depth                                : 24 bits
    Compression mode                         : Lossy
    Stream size                              : 1.33 GiB (18%)
    Title                                    : Arameo DTS 5.1
    Default                                  : No
    Forced                                   : No
    Statistics Tags Issue                    : mkvmerge v15.0.0 ('Duel with the Devil') 64-bit 2018-03-29 06:02:10 / mkvmerge v15.0.0 ('Duel with the Devil') 64-bit 2018-03-29 06:02:10 / UTC 2018-03-28T22:15:09Z
    FromStats_BitRate                        : 1508999
    FromStats_Duration                       : 02:06:32.075000000
    FromStats_FrameCount                     : 711757
    FromStats_StreamSize                     : 1432055084

    Text #1
    ID                                       : 4
    Format                                   : UTF-8
    Codec ID                                 : S_TEXT/UTF8
    Codec ID/Info                            : UTF-8 Plain Text
    Title                                    : SRT-Latino
    Language                                 : Spanish
    Default                                  : No
    Forced                                   : No
    Statistics Tags Issue                    : mkvmerge v15.0.0 ('Duel with the Devil') 64-bit 2018-03-29 06:02:10 / mkvmerge v15.0.0 ('Duel with the Devil') 64-bit 2018-03-29 06:02:10 / UTC 2018-03-28T22:15:09Z
    FromStats_BitRate                        : 17
    FromStats_Duration                       : 01:53:51.319000000
    FromStats_FrameCount                     : 523
    FromStats_StreamSize                     : 15078

    Text #2
    ID                                       : 5
    Format                                   : PGS
    Muxing mode                              : zlib
    Codec ID                                 : S_HDMV/PGS
    Codec ID/Info                            : Picture based subtitle format used on BDs/HD-DVDs
    Language                                 : English
    Default                                  : No
    Forced                                   : No
    Statistics Tags Issue                    : mkvmerge v15.0.0 ('Duel with the Devil') 64-bit 2018-03-29 06:02:10 / mkvmerge v15.0.0 ('Duel with the Devil') 64-bit 2018-03-29 06:02:10 / UTC 2018-03-28T22:15:09Z
    FromStats_BitRate                        : 10024
    FromStats_Duration                       : 01:51:49.146000000
    FromStats_FrameCount                     : 973
    FromStats_StreamSize                     : 8407394

    Text #3
    ID                                       : 6
    Format                                   : PGS
    Muxing mode                              : zlib
    Codec ID                                 : S_HDMV/PGS
    Codec ID/Info                            : Picture based subtitle format used on BDs/HD-DVDs
    Language                                 : Spanish
    Default                                  : No
    Forced                                   : No
    Statistics Tags Issue                    : mkvmerge v15.0.0 ('Duel with the Devil') 64-bit 2018-03-29 06:02:10 / mkvmerge v15.0.0 ('Duel with the Devil') 64-bit 2018-03-29 06:02:10 / UTC 2018-03-28T22:15:09Z
    FromStats_BitRate                        : 9493
    FromStats_Duration                       : 01:59:29.314000000
    FromStats_FrameCount                     : 982
    FromStats_StreamSize                     : 8507718

    Menu
    00:00:00.000                             : :Chapter 1
    00:15:02.527                             : :Chapter 2
    00:16:14.265                             : :Chapter 3
    00:36:57.090                             : :Chapter 4
    00:38:22.967                             : :Chapter 5
    00:53:28.038                             : :Chapter 6
    01:09:25.536                             : :Chapter 7
    01:14:05.441                             : :Chapter 8
    01:15:13.467                             : :Chapter 9
    01:17:33.190                             : :Chapter 10
    01:34:57.650                             : :Chapter 11
    01:43:17.650                             : :Chapter 12
    01:46:39.518                             : :Chapter 13
    01:55:50.902                             : :Chapter 14
    01:57:28.416                             : :Chapter 15
    01:58:57.005                             : :Chapter 16

  • Peso: 7.52 GiB

Sinopsis

Año 33 de nuestra era. En la provincia romana de Judea, un misterioso carpintero llamado Jesús de Nazareth comienza a anunciar la llegada del “reino de Dios” y se rodea de un grupo de humildes pescadores: los Apóstoles. Durante siglos, el pueblo judío había esperado la llegada del Mesías – personaje providencial que liberaría su sagrada patria e instauraría un nuevo orden basado en la justicia-. Las enseñanzas de Jesús atraen a una gran multitud de seguidores que lo reconocen como el Mesías. Alarmado por la situación, el Sanedrín, con la ayuda de Judas Iscariote, uno de los doce Apóstoles, arresta a Jesús. Acusado de traición a Roma, Cristo es entregado a Poncio Pilato, quien, para evitar un motín, lo condena a a morir en la cruz como un vulgar criminal.

 

Audios: Latino AC3 5.1 DVD – Arameo DTS 5.1 Bluray

Ficha técnica

Video trailer de la película

Enlaces de descarga

Rip de Bluray

Descargar La Pasión de Cristo (2004) Full 1080p Latino




Aportes de DPeliculasHDmega la pass es:dpeliculashdmega.org Aportes de CinemaniaHD la pass es:cinemaniahdd.com
Guardado en : Drama , FULL 1080p Plateadas

Películas relacionadas

  • Tully (2018) 1080p Latino

    2018
    Tully (2018) 1080p Latino

    0.0 1 h 35 min 2018

    La historia de una mujer con tres hijos que, incapaz de lidiar con su bebé recién nacido, contrata...

    Director: Jason Reitman

    Género: Comedia

    Actores: Stormy Ent

  • Si solo pudiera imaginar (2018) Full 1080p Latino

    2018
    Si solo pudiera imaginar (2018) Full 1080p Latino

    5.0 1 h 50 min 2018

    La historia real de la aclamada canción "I Can Only Imagine", la canción cristiana contemporánea más...

    Director: Jon Erwin

    Género: Drama

    Actores: Trace Adkins

  • El Justiciero (2014) Full 1080p Latino

    2014
    El Justiciero (2014) Full 1080p Latino

    4.0 2 h 12 min 2014

    Robert McCall, un antiguo agente de la CIA que lleva ahora una vida tranquila, abandona su retiro para...

    Director: Deirdre Horgan

    Género: Acción

    Actores: Yan Dron

Comentarios 0