La naranja mecánica (1971) Full 1080p Latino

1.006 vistas
1 estrella2 estrellas3 estrellas4 estrellas5 estrellas (3 votos, promedio: 4,33 de 5)
Cargando…

Información de La naranja mecánica (1971) Full 1080p Latino

Datos de la película

  • Calidad: Full 1080p
  • Audio: Español Latino AC3 5.1 BLURAY - Ingles DTS 5.1 BLURAY
  • Subtitulos: Español Latino PGS - Ingles PGS
  • Resolución: 1920x1080p
  • Formato: MKV
  • Codec: H.264
  • Encoder: Dracarys
  • Mediainfo: Clic para Mostrar Datos Ver
  • Format                                   : Matroska
    Format version                           : Version 4 / Version 2
    File size                                : 6.46 GiB
    Duration                                 : 2 h 16 min
    Overall bit rate                         : 6 772 kb/s
    Movie name                               : CinemaniaHDD.com
    Encoded date                             : UTC 2018-05-09 03:56:39 / UTC 2018-05-04T14:18:10Z
    Writing application                      : mkvmerge v15.0.0 ('Duel with the Devil') 64-bit
    Writing library                          : libebml v1.3.5 + libmatroska v1.4.5 / Lavf57.7.2

    Video
    ID                                       : 1
    Format                                   : AVC
    Format/Info                              : Advanced Video Codec
    Format profile                           : High@L4.1
    Format settings                          : CABAC / 4 Ref Frames
    Format settings, CABAC                   : Yes
    Format settings, RefFrames               : 4 frames
    Codec ID                                 : V_MPEG4/ISO/AVC
    Duration                                 : 2 h 16 min
    Bit rate                                 : 4 488 kb/s
    Width                                    : 1 920 pixels
    Height                                   : 1 080 pixels
    Display aspect ratio                     : 16:9
    Frame rate mode                          : Constant
    Frame rate                               : 23.976 (24000/1001) FPS
    Color space                              : YUV
    Chroma subsampling                       : 4:2:0
    Bit depth                                : 8 bits
    Scan type                                : Progressive
    Bits/(Pixel*Frame)                       : 0.090
    Stream size                              : 4.28 GiB (66%)
    Title                                    : La naranja mecánica (1971) Full 1080p Latino
    Writing library                          : x264 core 148 r2708 86b7198
    Encoding settings                        : cabac=1 / ref=4 / deblock=1:0:0 / analyse=0x3:0x133 / me=esa / subme=10 / psy=1 / psy_rd=1.00:0.00 / mixed_ref=1 / me_range=24 / chroma_me=1 / trellis=2 / 8x8dct=1 / cqm=0 / deadzone=21,11 / fast_pskip=1 / chroma_qp_offset=-2 / threads=34 / lookahead_threads=5 / sliced_threads=0 / nr=0 / decimate=1 / interlaced=0 / bluray_compat=0 / constrained_intra=0 / bframes=8 / b_pyramid=2 / b_adapt=2 / b_bias=0 / direct=3 / weightb=1 / open_gop=0 / weightp=2 / keyint=240 / keyint_min=24 / scenecut=40 / intra_refresh=0 / rc_lookahead=60 / rc=crf / mbtree=1 / crf=20.0 / qcomp=0.60 / qpmin=0 / qpmax=69 / qpstep=4 / vbv_maxrate=62500 / vbv_bufsize=78125 / crf_max=0.0 / nal_hrd=none / filler=0 / ip_ratio=1.40 / aq=1:1.00
    Language                                 : English
    Default                                  : Yes
    Forced                                   : No
    Color range                              : Limited
    Color primaries                          : BT.709
    Transfer characteristics                 : BT.709
    Matrix coefficients                      : BT.709
    Statistics Tags Issue                    : mkvmerge v15.0.0 ('Duel with the Devil') 64-bit 2018-05-09 03:56:39 / mkvmerge v15.0.0 ('Duel with the Devil') 64-bit 2018-05-09 03:56:39 / UTC 2018-05-04T14:18:10Z
    FromStats_BitRate                        : 4591870
    FromStats_Duration                       : 02:16:36.647000000
    FromStats_FrameCount                     : 196523
    FromStats_StreamSize                     : 4704742228

    Audio #1
    ID                                       : 2
    Format                                   : AC-3
    Format/Info                              : Audio Coding 3
    Format settings, Endianness              : Big
    Codec ID                                 : A_AC3
    Duration                                 : 2 h 16 min
    Bit rate mode                            : Constant
    Bit rate                                 : 640 kb/s
    Channel(s)                               : 6 channels
    Channel positions                        : Front: L C R, Side: L R, LFE
    Sampling rate                            : 48.0 kHz
    Frame rate                               : 31.250 FPS (1536 SPF)
    Bit depth                                : 16 bits
    Compression mode                         : Lossy
    Stream size                              : 625 MiB (9%)
    Language                                 : Spanish
    Service kind                             : Complete Main
    Default                                  : Yes
    Forced                                   : No
    Statistics Tags Issue                    : mkvmerge v15.0.0 ('Duel with the Devil') 64-bit 2018-05-09 03:56:39 / mkvmerge v15.0.0 ('Duel with the Devil') 64-bit 2018-05-09 03:56:39 / UTC 2018-05-04T14:18:10Z
    FromStats_BitRate                        : 640000
    FromStats_Duration                       : 02:16:36.672000000
    FromStats_FrameCount                     : 256146
    FromStats_StreamSize                     : 655733760

    Audio #2
    ID                                       : 3
    Format                                   : DTS
    Format/Info                              : Digital Theater Systems
    Mode                                     : 16
    Format settings, Endianness              : Big
    Codec ID                                 : A_DTS
    Duration                                 : 2 h 16 min
    Bit rate mode                            : Constant
    Bit rate                                 : 1 509 kb/s
    Channel(s)                               : 6 channels
    Channel positions                        : Front: L C R, Side: L R, LFE
    Sampling rate                            : 48.0 kHz
    Frame rate                               : 93.750 FPS (512 SPF)
    Bit depth                                : 16 bits
    Compression mode                         : Lossy
    Stream size                              : 1.44 GiB (22%)
    Language                                 : English
    Default                                  : No
    Forced                                   : No
    Statistics Tags Issue                    : mkvmerge v15.0.0 ('Duel with the Devil') 64-bit 2018-05-09 03:56:39 / mkvmerge v15.0.0 ('Duel with the Devil') 64-bit 2018-05-09 03:56:39 / UTC 2018-05-04T14:18:10Z
    FromStats_BitRate                        : 1509000
    FromStats_Duration                       : 02:16:36.640000000
    FromStats_FrameCount                     : 768435
    FromStats_StreamSize                     : 1546091220

    Text #1
    ID                                       : 4
    Format                                   : PGS
    Muxing mode                              : zlib
    Codec ID                                 : S_HDMV/PGS
    Codec ID/Info                            : Picture based subtitle format used on BDs/HD-DVDs
    Language                                 : English
    Default                                  : No
    Forced                                   : No
    Statistics Tags Issue                    : mkvmerge v15.0.0 ('Duel with the Devil') 64-bit 2018-05-09 03:56:39 / mkvmerge v15.0.0 ('Duel with the Devil') 64-bit 2018-05-09 03:56:39 / UTC 2018-05-04T14:18:10Z
    FromStats_BitRate                        : 32501
    FromStats_Duration                       : 02:14:54.920000000
    FromStats_FrameCount                     : 3605
    FromStats_StreamSize                     : 32887326

    Text #2
    ID                                       : 5
    Format                                   : PGS
    Muxing mode                              : zlib
    Codec ID                                 : S_HDMV/PGS
    Codec ID/Info                            : Picture based subtitle format used on BDs/HD-DVDs
    Language                                 : Spanish
    Default                                  : No
    Forced                                   : No
    Statistics Tags Issue                    : mkvmerge v15.0.0 ('Duel with the Devil') 64-bit 2018-05-09 03:56:39 / mkvmerge v15.0.0 ('Duel with the Devil') 64-bit 2018-05-09 03:56:39 / UTC 2018-05-04T14:18:10Z
    FromStats_BitRate                        : 29415
    FromStats_Duration                       : 02:15:56.690000000
    FromStats_FrameCount                     : 3275
    FromStats_StreamSize                     : 29991702

    Menu
    00:00:00.000                             : :Chapter 1
    00:02:17.054                             : :Chapter 2
    00:04:28.018                             : :Chapter 3
    00:07:32.369                             : :Chapter 4
    00:08:58.455                             : :Chapter 5
    00:13:21.718                             : :Chapter 6
    00:16:46.756                             : :Chapter 7
    00:20:02.451                             : :Chapter 8
    00:25:47.796                             : :Chapter 9
    00:28:05.309                             : :Chapter 10
    00:29:04.201                             : :Chapter 11
    00:33:19.247                             : :Chapter 12
    00:36:30.605                             : :Chapter 13
    00:43:32.193                             : :Chapter 14
    00:47:21.088                             : :Chapter 15
    00:52:57.049                             : :Chapter 16
    00:55:30.452                             : :Chapter 17
    01:01:19.759                             : :Chapter 18
    01:07:20.787                             : :Chapter 19
    01:11:13.853                             : :Chapter 20
    01:15:33.946                             : :Chapter 21
    01:19:16.377                             : :Chapter 22
    01:23:59.243                             : :Chapter 23
    01:26:18.882                             : :Chapter 24
    01:28:09.201                             : :Chapter 25
    01:31:53.591                             : :Chapter 26
    01:35:55.375                             : :Chapter 27
    01:39:30.923                             : :Chapter 28
    01:42:23.179                             : :Chapter 29
    01:49:35.861                             : :Chapter 30
    02:01:09.262                             : :Chapter 31
    02:04:03.186                             : :Chapter 32
    02:07:37.567                             : :Chapter 33
    02:12:34.029                             : :Chapter 34
    02:13:55.778                             : :Chapter 35

  • Peso: 6.46 GiB

Sinopsis

Gran Bretaña, en un futuro indeterminado. Alex (Malcolm McDowell) es un joven muy agresivo que tiene dos pasiones: la violencia desaforada y Beethoven. Es el jefe de la banda de los drugos, que dan rienda suelta a sus instintos más salvajes apaleando, violando y aterrorizando a la población. Cuando esa escalada de terror llega hasta el asesinato, Alex es detenido y, en prisión, se someterá voluntariamente a una innovadora experiencia de reeducación que pretende anular drásticamente cualquier atisbo de conducta antisocial.

Ficha técnica

Video trailer de la película

Enlaces de descarga

Rip de Bluray

Descargar La naranja mecánica (1971) Full 1080p Latino




Aportes de DPeliculasHDmega la pass es:dpeliculashdmega.org Aportes de CinemaniaHD la pass es:cinemaniahdd.com

Películas relacionadas

  • Lady Bird (2017) Full 1080p Latino

    2017
    Lady Bird (2017) Full 1080p Latino

    5.0 1h 34m 2017

    Sacramento, California, año 2002. Una joven llamada Christine McPherson (Saoirse Ronan), apodada como...

    Director: Jonas Spaccarotelli

    Género: Comedia

    Actores: Tracy Letts

  • Plan de escape (2013) Full 1080p Latino

    2013
    Plan de escape (2013) Full 1080p Latino

    3.0 1h 56m 2013

    El experto en seguridad Ray Breslin prueba sus teorías poco convencionales en diseño de prisiones elaborando...

    Director: Mikael Håfström

    Género: Acción

    Actores: Vinnie Jones

  • El sentido de un final (2017) 1080p Latino

    2017
    El sentido de un final (2017) 1080p Latino

    0.0 1h 48m 2017

    Tony Webster, un hombre jubilado y divorciado, mantiene una tranquila y solitaria vida. Un día descubre...

    Director: Ritesh Batra

    Género: 1080p Portada Negra

    Actores: Timothy Innes

Comentarios 0