La muerte de Superman (2018) Full 1080p Latino | CinemaniaHD - Descargar Peliculas 1080p Mega Google Drive

La muerte de Superman (2018) Full 1080p Latino

1.189 vistas
1 estrella2 estrellas3 estrellas4 estrellas5 estrellas (1 votos, promedio: 5,00 de 5)
Cargando…

Información de La muerte de Superman (2018) Full 1080p Latino

Datos de la película

  • Calidad: Full 1080p
  • Audio: Español Latino AC3 5.1 BLURAY - Ingles DTS 5.1 BLURAY
  • Subtitulos: Español Latino PGS - Ingles PGS
  • Resolución: 1920x1080p
  • Formato: MKV
  • Codec: H.264
  • Encoder: Dracarys
  • Mediainfo: Clic para Mostrar Datos Ver
  • Format                                   : Matroska
    Format version                           : Version 4 / Version 2
    File size                                : 2.39 GiB
    Duration                                 : 1 h 20 min
    Overall bit rate                         : 4 224 kb/s
    Movie name                               : CinemaniaHDD.net
    Encoded date                             : UTC 2018-08-09 03:08:52 / UTC 2018-08-04T05:44:55Z
    Writing application                      : mkvmerge v15.0.0 ('Duel with the Devil') 64-bit
    Writing library                          : libebml v1.3.5 + libmatroska v1.4.5 / Lavf57.7.2

    Video
    ID                                       : 1
    Format                                   : AVC
    Format/Info                              : Advanced Video Codec
    Format profile                           : High@L4.1
    Format settings                          : CABAC / 4 Ref Frames
    Format settings, CABAC                   : Yes
    Format settings, RefFrames               : 4 frames
    Codec ID                                 : V_MPEG4/ISO/AVC
    Duration                                 : 1 h 20 min
    Bit rate                                 : 1 991 kb/s
    Width                                    : 1 920 pixels
    Height                                   : 1 080 pixels
    Display aspect ratio                     : 16:9
    Frame rate mode                          : Constant
    Frame rate                               : 23.976 (24000/1001) FPS
    Color space                              : YUV
    Chroma subsampling                       : 4:2:0
    Bit depth                                : 8 bits
    Scan type                                : Progressive
    Bits/(Pixel*Frame)                       : 0.040
    Stream size                              : 1.13 GiB (47%)
    Title                                    : La muerte de Superman (2018) Full 1080p Latino
    Writing library                          : x264 core 148 r2708 86b7198
    Encoding settings                        : cabac=1 / ref=4 / deblock=1:0:0 / analyse=0x3:0x133 / me=esa / subme=10 / psy=1 / psy_rd=1.00:0.00 / mixed_ref=1 / me_range=24 / chroma_me=1 / trellis=2 / 8x8dct=1 / cqm=0 / deadzone=21,11 / fast_pskip=1 / chroma_qp_offset=-2 / threads=34 / lookahead_threads=5 / sliced_threads=0 / nr=0 / decimate=1 / interlaced=0 / bluray_compat=0 / constrained_intra=0 / bframes=8 / b_pyramid=2 / b_adapt=2 / b_bias=0 / direct=3 / weightb=1 / open_gop=0 / weightp=2 / keyint=240 / keyint_min=24 / scenecut=40 / intra_refresh=0 / rc_lookahead=60 / rc=crf / mbtree=1 / crf=20.0 / qcomp=0.60 / qpmin=0 / qpmax=69 / qpstep=4 / vbv_maxrate=62500 / vbv_bufsize=78125 / crf_max=0.0 / nal_hrd=none / filler=0 / ip_ratio=1.40 / aq=1:1.00
    Language                                 : English
    Default                                  : Yes
    Forced                                   : No
    Color range                              : Limited
    Color primaries                          : BT.709
    Transfer characteristics                 : BT.709
    Matrix coefficients                      : BT.709
    Statistics Tags Issue                    : mkvmerge v15.0.0 ('Duel with the Devil') 64-bit 2018-08-09 03:08:52 / mkvmerge v15.0.0 ('Duel with the Devil') 64-bit 2018-08-09 03:08:52 / UTC 2018-08-04T05:44:55Z
    FromStats_BitRate                        : 2052771
    FromStats_Duration                       : 01:20:55.559000000
    FromStats_FrameCount                     : 116417
    FromStats_StreamSize                     : 1245919337

    Audio #1
    ID                                       : 2
    Format                                   : AC-3
    Format/Info                              : Audio Coding 3
    Format settings, Endianness              : Big
    Codec ID                                 : A_AC3
    Duration                                 : 1 h 20 min
    Bit rate mode                            : Constant
    Bit rate                                 : 640 kb/s
    Channel(s)                               : 6 channels
    Channel positions                        : Front: L C R, Side: L R, LFE
    Sampling rate                            : 48.0 kHz
    Frame rate                               : 31.250 FPS (1536 SPF)
    Bit depth                                : 16 bits
    Compression mode                         : Lossy
    Stream size                              : 370 MiB (15%)
    Language                                 : Spanish
    Service kind                             : Complete Main
    Default                                  : Yes
    Forced                                   : No
    Statistics Tags Issue                    : mkvmerge v15.0.0 ('Duel with the Devil') 64-bit 2018-08-09 03:08:52 / mkvmerge v15.0.0 ('Duel with the Devil') 64-bit 2018-08-09 03:08:52 / UTC 2018-08-04T05:44:55Z
    FromStats_BitRate                        : 640000
    FromStats_Duration                       : 01:20:55.616000000
    FromStats_FrameCount                     : 151738
    FromStats_StreamSize                     : 388449280

    Audio #2
    ID                                       : 3
    Format                                   : DTS
    Format/Info                              : Digital Theater Systems
    Mode                                     : 16
    Format settings, Endianness              : Big
    Codec ID                                 : A_DTS
    Duration                                 : 1 h 20 min
    Bit rate mode                            : Constant
    Bit rate                                 : 1 509 kb/s
    Channel(s)                               : 6 channels
    Channel positions                        : Front: L C R, Side: L R, LFE
    Sampling rate                            : 48.0 kHz
    Frame rate                               : 93.750 FPS (512 SPF)
    Bit depth                                : 24 bits
    Compression mode                         : Lossy
    Stream size                              : 873 MiB (36%)
    Language                                 : English
    Default                                  : No
    Forced                                   : No
    Statistics Tags Issue                    : mkvmerge v15.0.0 ('Duel with the Devil') 64-bit 2018-08-09 03:08:52 / mkvmerge v15.0.0 ('Duel with the Devil') 64-bit 2018-08-09 03:08:52 / UTC 2018-08-04T05:44:55Z
    FromStats_BitRate                        : 1508999
    FromStats_Duration                       : 01:20:55.595000000
    FromStats_FrameCount                     : 455212
    FromStats_StreamSize                     : 915886544

    Text #1
    ID                                       : 4
    Format                                   : PGS
    Muxing mode                              : zlib
    Codec ID                                 : S_HDMV/PGS
    Codec ID/Info                            : Picture based subtitle format used on BDs/HD-DVDs
    Language                                 : English
    Default                                  : No
    Forced                                   : No
    Statistics Tags Issue                    : mkvmerge v15.0.0 ('Duel with the Devil') 64-bit 2018-08-09 03:08:52 / mkvmerge v15.0.0 ('Duel with the Devil') 64-bit 2018-08-09 03:08:52 / UTC 2018-08-04T05:44:55Z
    FromStats_BitRate                        : 35029
    FromStats_Duration                       : 01:19:59.462000000
    FromStats_FrameCount                     : 1978
    FromStats_StreamSize                     : 21015090

    Text #2
    ID                                       : 5
    Format                                   : PGS
    Muxing mode                              : zlib
    Codec ID                                 : S_HDMV/PGS
    Codec ID/Info                            : Picture based subtitle format used on BDs/HD-DVDs
    Language                                 : Spanish
    Default                                  : No
    Forced                                   : No
    Statistics Tags Issue                    : mkvmerge v15.0.0 ('Duel with the Devil') 64-bit 2018-08-09 03:08:52 / mkvmerge v15.0.0 ('Duel with the Devil') 64-bit 2018-08-09 03:08:52 / UTC 2018-08-04T05:44:55Z
    FromStats_BitRate                        : 29971
    FromStats_Duration                       : 01:19:56.833000000
    FromStats_FrameCount                     : 1613
    FromStats_StreamSize                     : 17971073

    Menu
    00:00:00.000                             : :Chapter 1
    00:09:32.072                             : :Chapter 2
    00:20:02.410                             : :Chapter 3
    00:32:29.489                             : :Chapter 4
    00:40:17.707                             : :Chapter 5
    00:51:40.055                             : :Chapter 6
    01:03:31.308                             : :Chapter 7
    01:10:59.797                             : :Chapter 8
    01:17:04.161                             : :Chapter 9

  • Peso: 2.39 GiB

Sinopsis

Death of Superman es una película animada de superhéroes de 2018 perteneciente al universo de Películas animadas originales del Universo DC. Dirigida por Jake Castorena y Sam Liu, esta es una nueva adaptación del cómic basado en el mismo arco argumental, y una versión de la película de 2007, La muerte de Superman. El filme se dividirá en dos partes, The Death of Superman saldrá en el 2018 y la segunda parte, titulada The Reign of Superman se estrenará durante el 2019.

 

Audio Latino

PGS Completos

PGS Forzados

Ficha técnica

Video trailer de la película

Enlaces de descarga

Rip de Bluray

Descargar La muerte de Superman (2018) Full 1080p Latino




Aportes de DPeliculasHDmega la pass es:dpeliculashdmega.org Aportes de CinemaniaHD la pass es:cinemaniahdd.com

Películas relacionadas

  • La leyenda del gigante de la montaña (2018) 1080p Latino

    2017
    La leyenda del gigante de la montaña (2018) 1080p Latino

    0.0 2h 0m 2017

    Espen "Ash Lad", un pobre hijo de granjero, se embarca en una peligrosa aventura con sus hermanos para...

    Director: Mikkel Brænne Sandemose

    Género: 1080p Portada Negra

    Actores: Vebjørn Enger

  • La jungla (2017) 1080p Latino

    2017
    La jungla (2017) 1080p Latino

    0.0 1h 55m 2017

    Cuenta la historia real de Yossi Ghinsberg, un joven aventurero que vivió para escribir un bestseller...

    Director: Greg McLean

    Género: 1080p Portada Negra

    Actores: Yasmin Kassim

  • Big Fish & Begonia (2018) NF 1080p Latino

    2016
    Big Fish & Begonia (2018) NF 1080p Latino

    0.0 1h 30m 2016

    En un universo más allá del nuestro, Chun celebra su decimosexto aniversario cumpliendo una tradición...

    Director: Zhang Chun

    Género: Animación

    Actores: Zhang Jie

Comentarios 0