La leyenda del Zorro (2005) Full 1080p Latino

816 vistas
1 estrella2 estrellas3 estrellas4 estrellas5 estrellas (1 votos, promedio: 5,00 de 5)
Cargando…

Información de La leyenda del Zorro (2005) Full 1080p Latino

Datos de la película

  • Calidad: Full 1080p
  • Audio: Español Latino AC3 5.1 BLURAY - Ingles AC3 5.1 BLURAY
  • Subtitulos: Español Latino PGS - Ingles PGS
  • Resolución: 1920x1080p
  • Formato: MKV
  • Codec: H.264
  • Encoder: Dracarys
  • Mediainfo: Clic para Mostrar Datos Ver
  • Format                                   : Matroska
    Format version                           : Version 4 / Version 2
    File size                                : 5.34 GiB
    Duration                                 : 2 h 10 min
    Overall bit rate                         : 5 862 kb/s
    Movie name                               : CinemaniaHDD.net
    Encoded date                             : UTC 2018-05-25 02:36:35 / UTC 2018-05-24T03:38:15Z
    Writing application                      : mkvmerge v15.0.0 ('Duel with the Devil') 64-bit
    Writing library                          : libebml v1.3.5 + libmatroska v1.4.5 / Lavf57.7.2

    Video
    ID                                       : 1
    Format                                   : AVC
    Format/Info                              : Advanced Video Codec
    Format profile                           : High@L4.1
    Format settings                          : CABAC / 4 Ref Frames
    Format settings, CABAC                   : Yes
    Format settings, RefFrames               : 4 frames
    Codec ID                                 : V_MPEG4/ISO/AVC
    Duration                                 : 2 h 10 min
    Bit rate                                 : 4 465 kb/s
    Width                                    : 1 920 pixels
    Height                                   : 1 080 pixels
    Display aspect ratio                     : 16:9
    Frame rate mode                          : Constant
    Frame rate                               : 23.976 (24000/1001) FPS
    Color space                              : YUV
    Chroma subsampling                       : 4:2:0
    Bit depth                                : 8 bits
    Scan type                                : Progressive
    Bits/(Pixel*Frame)                       : 0.090
    Stream size                              : 4.07 GiB (76%)
    Title                                    : La leyenda del Zorro (2005) Full 1080p Latino
    Writing library                          : x264 core 148 r2708 86b7198
    Encoding settings                        : cabac=1 / ref=4 / deblock=1:0:0 / analyse=0x3:0x133 / me=esa / subme=9 / psy=1 / psy_rd=1.00:0.00 / mixed_ref=1 / me_range=16 / chroma_me=1 / trellis=2 / 8x8dct=1 / cqm=0 / deadzone=21,11 / fast_pskip=1 / chroma_qp_offset=-2 / threads=34 / lookahead_threads=2 / sliced_threads=0 / nr=0 / decimate=1 / interlaced=0 / bluray_compat=0 / constrained_intra=0 / bframes=3 / b_pyramid=2 / b_adapt=2 / b_bias=0 / direct=3 / weightb=1 / open_gop=0 / weightp=2 / keyint=240 / keyint_min=24 / scenecut=40 / intra_refresh=0 / rc_lookahead=60 / rc=crf / mbtree=1 / crf=20.0 / qcomp=0.60 / qpmin=0 / qpmax=69 / qpstep=4 / vbv_maxrate=62500 / vbv_bufsize=78125 / crf_max=0.0 / nal_hrd=none / filler=0 / ip_ratio=1.40 / aq=1:1.00
    Language                                 : English
    Default                                  : Yes
    Forced                                   : No
    Color range                              : Limited
    Color primaries                          : BT.709
    Transfer characteristics                 : BT.709
    Matrix coefficients                      : BT.709
    Statistics Tags Issue                    : mkvmerge v15.0.0 ('Duel with the Devil') 64-bit 2018-05-25 02:36:35 / mkvmerge v15.0.0 ('Duel with the Devil') 64-bit 2018-05-25 02:36:35 / UTC 2018-05-24T03:38:15Z
    FromStats_BitRate                        : 4562800
    FromStats_Duration                       : 02:10:27.779000000
    FromStats_FrameCount                     : 187679
    FromStats_StreamSize                     : 4464574120

    Audio #1
    ID                                       : 2
    Format                                   : AC-3
    Format/Info                              : Audio Coding 3
    Format settings, Endianness              : Big
    Codec ID                                 : A_AC3
    Duration                                 : 2 h 10 min
    Bit rate mode                            : Constant
    Bit rate                                 : 640 kb/s
    Channel(s)                               : 6 channels
    Channel positions                        : Front: L C R, Side: L R, LFE
    Sampling rate                            : 48.0 kHz
    Frame rate                               : 31.250 FPS (1536 SPF)
    Bit depth                                : 16 bits
    Compression mode                         : Lossy
    Stream size                              : 597 MiB (11%)
    Language                                 : Spanish
    Service kind                             : Complete Main
    Default                                  : Yes
    Forced                                   : No
    Statistics Tags Issue                    : mkvmerge v15.0.0 ('Duel with the Devil') 64-bit 2018-05-25 02:36:35 / mkvmerge v15.0.0 ('Duel with the Devil') 64-bit 2018-05-25 02:36:35 / UTC 2018-05-24T03:38:15Z
    FromStats_BitRate                        : 640000
    FromStats_Duration                       : 02:10:27.840000000
    FromStats_FrameCount                     : 244620
    FromStats_StreamSize                     : 626227200

    Audio #2
    ID                                       : 3
    Format                                   : AC-3
    Format/Info                              : Audio Coding 3
    Format settings, Endianness              : Big
    Codec ID                                 : A_AC3
    Duration                                 : 2 h 10 min
    Bit rate mode                            : Constant
    Bit rate                                 : 640 kb/s
    Channel(s)                               : 6 channels
    Channel positions                        : Front: L C R, Side: L R, LFE
    Sampling rate                            : 48.0 kHz
    Frame rate                               : 31.250 FPS (1536 SPF)
    Bit depth                                : 16 bits
    Compression mode                         : Lossy
    Stream size                              : 597 MiB (11%)
    Language                                 : English
    Service kind                             : Complete Main
    Default                                  : No
    Forced                                   : No
    Statistics Tags Issue                    : mkvmerge v15.0.0 ('Duel with the Devil') 64-bit 2018-05-25 02:36:35 / mkvmerge v15.0.0 ('Duel with the Devil') 64-bit 2018-05-25 02:36:35 / UTC 2018-05-24T03:38:15Z
    FromStats_BitRate                        : 640000
    FromStats_Duration                       : 02:10:27.840000000
    FromStats_FrameCount                     : 244620
    FromStats_StreamSize                     : 626227200

    Text #1
    ID                                       : 4
    Format                                   : PGS
    Muxing mode                              : zlib
    Codec ID                                 : S_HDMV/PGS
    Codec ID/Info                            : Picture based subtitle format used on BDs/HD-DVDs
    Language                                 : English
    Default                                  : No
    Forced                                   : No
    Statistics Tags Issue                    : mkvmerge v15.0.0 ('Duel with the Devil') 64-bit 2018-05-25 02:36:35 / mkvmerge v15.0.0 ('Duel with the Devil') 64-bit 2018-05-25 02:36:35 / UTC 2018-05-24T03:38:15Z
    FromStats_BitRate                        : 21189
    FromStats_Duration                       : 02:00:26.511000000
    FromStats_FrameCount                     : 1859
    FromStats_StreamSize                     : 19141028

    Text #2
    ID                                       : 5
    Format                                   : PGS
    Muxing mode                              : zlib
    Codec ID                                 : S_HDMV/PGS
    Codec ID/Info                            : Picture based subtitle format used on BDs/HD-DVDs
    Language                                 : Spanish
    Default                                  : No
    Forced                                   : No
    Statistics Tags Issue                    : mkvmerge v15.0.0 ('Duel with the Devil') 64-bit 2018-05-25 02:36:35 / mkvmerge v15.0.0 ('Duel with the Devil') 64-bit 2018-05-25 02:36:35 / UTC 2018-05-24T03:38:15Z
    FromStats_BitRate                        : 19904
    FromStats_Duration                       : 02:01:11.055000000
    FromStats_FrameCount                     : 1814
    FromStats_StreamSize                     : 18091032

    Menu
    00:00:00.000                             : :Chapter 1
    00:06:37.647                             : :Chapter 2
    00:13:19.674                             : :Chapter 3
    00:22:59.420                             : :Chapter 4
    00:29:41.613                             : :Chapter 5
    00:38:02.822                             : :Chapter 6
    00:45:24.972                             : :Chapter 7
    00:54:12.082                             : :Chapter 8
    01:02:08.391                             : :Chapter 9
    01:10:41.988                             : :Chapter 10
    01:19:41.026                             : :Chapter 11
    01:25:30.334                             : :Chapter 12
    01:30:43.605                             : :Chapter 13
    01:36:20.817                             : :Chapter 14
    01:43:26.534                             : :Chapter 15
    01:49:48.582                             : :Chapter 16

  • Peso: 5.34 GiB

Sinopsis

Tras ayudar con su espada a que California se convierta en el estado número 31 de la Unión, el Zorro (Antonio Banderas) debe cumplir la promesa que le hizo a su mujer Elena (Catherine Zeta-Jones): abandonar su identidad secreta y llevar una vida normal como Alejandro de la Vega.

Ficha técnica

Video trailer de la película

Enlaces de descarga

Rip de Bluray

Descargar La leyenda del Zorro (2005) Full 1080p Latino




Aportes de DPeliculasHDmega la pass es:dpeliculashdmega.org Aportes de CinemaniaHD la pass es:cinemaniahdd.com

Películas relacionadas

  • Lady Bird (2017) Full 1080p Latino

    2017
    Lady Bird (2017) Full 1080p Latino

    5.0 1h 34m 2017

    Sacramento, California, año 2002. Una joven llamada Christine McPherson (Saoirse Ronan), apodada como...

    Director: Jonas Spaccarotelli

    Género: Comedia

    Actores: Tracy Letts

  • Plan de escape (2013) Full 1080p Latino

    2013
    Plan de escape (2013) Full 1080p Latino

    3.0 1h 56m 2013

    El experto en seguridad Ray Breslin prueba sus teorías poco convencionales en diseño de prisiones elaborando...

    Director: Mikael Håfström

    Género: Acción

    Actores: Vinnie Jones

Comentarios 0