La invención de Hugo (2011) Full 1080p Latino

783 vistas
1 estrella2 estrellas3 estrellas4 estrellas5 estrellas (Ninguna valoración todavía)
Cargando…

Información de La invención de Hugo (2011) Full 1080p Latino

Datos de la película

  • Calidad: Full 1080p
  • Audio: Español Latino AC3 5.1 BLURAY - Ingles DTS 5.1 BLURAY
  • Subtitulos: Español Latino PGS - Ingles PGS
  • Resolución: 1920X1080p
  • Formato: MKV
  • Codec: H.264
  • Encoder: Dracarys
  • Mediainfo: Clic para Mostrar Datos Ver
  • Format                                   : Matroska
    Format version                           : Version 4 / Version 2
    File size                                : 6.19 GiB
    Duration                                 : 2 h 6 min
    Overall bit rate                         : 7 016 kb/s
    Movie name                               : CinemaniaHDD.com
    Encoded date                             : UTC 2018-03-08 06:09:31 / UTC 2018-03-07T21:07:02Z
    Writing application                      : mkvmerge v15.0.0 ('Duel with the Devil') 64-bit
    Writing library                          : libebml v1.3.5 + libmatroska v1.4.5 / Lavf57.7.2

    Video
    ID                                       : 1
    Format                                   : AVC
    Format/Info                              : Advanced Video Codec
    Format profile                           : High@L4.1
    Format settings                          : CABAC / 4 Ref Frames
    Format settings, CABAC                   : Yes
    Format settings, RefFrames               : 4 frames
    Codec ID                                 : V_MPEG4/ISO/AVC
    Duration                                 : 2 h 6 min
    Bit rate                                 : 4 727 kb/s
    Width                                    : 1 920 pixels
    Height                                   : 1 080 pixels
    Display aspect ratio                     : 16:9
    Frame rate mode                          : Constant
    Frame rate                               : 23.976 (24000/1001) FPS
    Color space                              : YUV
    Chroma subsampling                       : 4:2:0
    Bit depth                                : 8 bits
    Scan type                                : Progressive
    Bits/(Pixel*Frame)                       : 0.095
    Stream size                              : 4.17 GiB (67%)
    Title                                    : La invención de Hugo (2011) Full 1080p Latino
    Writing library                          : x264 core 148 r2708 86b7198
    Encoding settings                        : cabac=1 / ref=4 / deblock=1:0:0 / analyse=0x3:0x133 / me=esa / subme=10 / psy=1 / psy_rd=1.00:0.00 / mixed_ref=1 / me_range=24 / chroma_me=1 / trellis=2 / 8x8dct=1 / cqm=0 / deadzone=21,11 / fast_pskip=1 / chroma_qp_offset=-2 / threads=34 / lookahead_threads=5 / sliced_threads=0 / nr=0 / decimate=1 / interlaced=0 / bluray_compat=0 / constrained_intra=0 / bframes=8 / b_pyramid=2 / b_adapt=2 / b_bias=0 / direct=3 / weightb=1 / open_gop=0 / weightp=2 / keyint=240 / keyint_min=24 / scenecut=40 / intra_refresh=0 / rc_lookahead=60 / rc=crf / mbtree=1 / crf=20.0 / qcomp=0.60 / qpmin=0 / qpmax=69 / qpstep=4 / vbv_maxrate=62500 / vbv_bufsize=78125 / crf_max=0.0 / nal_hrd=none / filler=0 / ip_ratio=1.40 / aq=1:1.00
    Language                                 : English
    Default                                  : Yes
    Forced                                   : No
    Color range                              : Limited
    Color primaries                          : BT.709
    Transfer characteristics                 : BT.709
    Matrix coefficients                      : BT.709
    Statistics Tags Issue                    : mkvmerge v15.0.0 ('Duel with the Devil') 64-bit 2018-03-08 06:09:31 / mkvmerge v15.0.0 ('Duel with the Devil') 64-bit 2018-03-08 06:09:31 / UTC 2018-03-07T21:07:02Z
    FromStats_BitRate                        : 4847272
    FromStats_Duration                       : 02:06:20.990000000
    FromStats_FrameCount                     : 181762
    FromStats_StreamSize                     : 4593390425

    Audio #1
    ID                                       : 2
    Format                                   : AC-3
    Format/Info                              : Audio Coding 3
    Format settings, Endianness              : Big
    Codec ID                                 : A_AC3
    Duration                                 : 2 h 6 min
    Bit rate mode                            : Constant
    Bit rate                                 : 640 kb/s
    Channel(s)                               : 6 channels
    Channel positions                        : Front: L C R, Side: L R, LFE
    Sampling rate                            : 48.0 kHz
    Frame rate                               : 31.250 FPS (1536 SPF)
    Bit depth                                : 16 bits
    Compression mode                         : Lossy
    Stream size                              : 578 MiB (9%)
    Language                                 : Spanish
    Service kind                             : Complete Main
    Default                                  : Yes
    Forced                                   : No
    Statistics Tags Issue                    : mkvmerge v15.0.0 ('Duel with the Devil') 64-bit 2018-03-08 06:09:31 / mkvmerge v15.0.0 ('Duel with the Devil') 64-bit 2018-03-08 06:09:31 / UTC 2018-03-07T21:07:02Z
    FromStats_BitRate                        : 640000
    FromStats_Duration                       : 02:06:21.056000000
    FromStats_FrameCount                     : 236908
    FromStats_StreamSize                     : 606484480

    Audio #2
    ID                                       : 3
    Format                                   : DTS
    Format/Info                              : Digital Theater Systems
    Mode                                     : 16
    Format settings, Endianness              : Big
    Codec ID                                 : A_DTS
    Duration                                 : 2 h 6 min
    Bit rate mode                            : Constant
    Bit rate                                 : 1 509 kb/s
    Channel(s)                               : 6 channels
    Channel positions                        : Front: L C R, Side: L R, LFE
    Sampling rate                            : 48.0 kHz
    Frame rate                               : 93.750 FPS (512 SPF)
    Bit depth                                : 24 bits
    Compression mode                         : Lossy
    Stream size                              : 1.33 GiB (22%)
    Language                                 : English
    Default                                  : No
    Forced                                   : No
    Statistics Tags Issue                    : mkvmerge v15.0.0 ('Duel with the Devil') 64-bit 2018-03-08 06:09:31 / mkvmerge v15.0.0 ('Duel with the Devil') 64-bit 2018-03-08 06:09:31 / UTC 2018-03-07T21:07:02Z
    FromStats_BitRate                        : 1509000
    FromStats_Duration                       : 02:06:21.024000000
    FromStats_FrameCount                     : 710721
    FromStats_StreamSize                     : 1429970652

    Text #1
    ID                                       : 4
    Format                                   : PGS
    Muxing mode                              : zlib
    Codec ID                                 : S_HDMV/PGS
    Codec ID/Info                            : Picture based subtitle format used on BDs/HD-DVDs
    Language                                 : English
    Default                                  : No
    Forced                                   : No
    Statistics Tags Issue                    : mkvmerge v15.0.0 ('Duel with the Devil') 64-bit 2018-03-08 06:09:31 / mkvmerge v15.0.0 ('Duel with the Devil') 64-bit 2018-03-08 06:09:31 / UTC 2018-03-07T21:07:02Z
    FromStats_BitRate                        : 29751
    FromStats_Duration                       : 01:57:32.045000000
    FromStats_FrameCount                     : 1947
    FromStats_StreamSize                     : 26225996

    Text #2
    ID                                       : 5
    Format                                   : PGS
    Muxing mode                              : zlib
    Codec ID                                 : S_HDMV/PGS
    Codec ID/Info                            : Picture based subtitle format used on BDs/HD-DVDs
    Language                                 : Spanish
    Default                                  : No
    Forced                                   : No
    Statistics Tags Issue                    : mkvmerge v15.0.0 ('Duel with the Devil') 64-bit 2018-03-08 06:09:31 / mkvmerge v15.0.0 ('Duel with the Devil') 64-bit 2018-03-08 06:09:31 / UTC 2018-03-07T21:07:02Z
    FromStats_BitRate                        : 26828
    FromStats_Duration                       : 01:57:32.045000000
    FromStats_FrameCount                     : 1878
    FromStats_StreamSize                     : 23649255

    Menu
    00:00:00.000                             : :Chapter 1
    00:09:35.533                             : :Chapter 2
    00:17:20.665                             : :Chapter 3
    00:23:32.912                             : :Chapter 4
    00:30:34.541                             : :Chapter 5
    00:38:26.262                             : :Chapter 6
    00:47:36.270                             : :Chapter 7
    00:55:37.543                             : :Chapter 8
    01:03:43.695                             : :Chapter 9
    01:12:46.863                             : :Chapter 10
    01:19:59.169                             : :Chapter 11
    01:27:10.100                             : :Chapter 12
    01:33:03.495                             : :Chapter 13
    01:42:41.280                             : :Chapter 14
    01:53:47.779                             : :Chapter 15
    01:59:58.441                             : :Chapter 16

  • Peso: 6.19 GiB

Sinopsis

‘La invención de Hugo’ cuenta la historia de Hugo Cabret (Asa Butterflied, ‘El niño con el pijama a rayas’), un niño huérfano que vive oculto en la estación de tren de París, en el año 1930. Hijo de un relojero, y habiendo heredado su habilidad con la precisión para las máquinas, intentará reconstruir un autómata que dejó incompleto su progenitor. Lo hará acompañado de una excéntrica niña, Isabelle (Chloë Grace Moretz, ‘Kick Ass. Listos para machacar’) y de un viejo juguetero (Ben Kingsley, ‘La lista de Schlinder’), que no es otro que George Méliès. A partir de el momento que se encuentren, se internarán juntos en un mundo inesperado repleto de fantasías en el que cada uno encontrará sus propias respuestas a los enigmas tanto terrenales como de su imaginación. En la era de los inventos, de las máquinas y de la ciencia ficción, todo es posible, incluso que los sueños se hagan realidad.

Ficha técnica

Video trailer de la película

Enlaces de descarga

Rip de Bluray

Descargar La invención de Hugo (2011) Full 1080p Latino




Aportes de DPeliculasHDmega la pass es:dpeliculashdmega.org Aportes de CinemaniaHD la pass es:cinemaniahdd.com

Películas relacionadas

  • Tully (2018) 1080p Latino

    2018
    Tully (2018) 1080p Latino

    0.0 1 h 35 min 2018

    La historia de una mujer con tres hijos que, incapaz de lidiar con su bebé recién nacido, contrata...

    Director: Jason Reitman

    Género: Comedia

    Actores: Stormy Ent

  • Si solo pudiera imaginar (2018) Full 1080p Latino

    2018
    Si solo pudiera imaginar (2018) Full 1080p Latino

    5.0 1 h 50 min 2018

    La historia real de la aclamada canción "I Can Only Imagine", la canción cristiana contemporánea más...

    Director: Jon Erwin

    Género: Drama

    Actores: Trace Adkins

  • El Justiciero (2014) Full 1080p Latino

    2014
    El Justiciero (2014) Full 1080p Latino

    4.0 2 h 12 min 2014

    Robert McCall, un antiguo agente de la CIA que lleva ahora una vida tranquila, abandona su retiro para...

    Director: Deirdre Horgan

    Género: Acción

    Actores: Yan Dron

Comentarios 0