La gran Gilly Hopkins (2016) 1080p Latino

1.218 vistas
1 estrella2 estrellas3 estrellas4 estrellas5 estrellas (1 votos, promedio: 3,00 de 5)
Cargando…

Información de La gran Gilly Hopkins (2016) 1080p Latino

Datos de la película

  • Calidad: 1080p
  • Audio: Español Latino AC3 2.0 Capturado - Ingles AC3 5.1 BLURAY
  • Subtitulos: Español Latino SRT - Ingles SRT
  • Resolución: 1920x800p
  • Formato: MKV
  • Codec: H.264
  • Encoder: Dpelis
  • Mediainfo: Clic para Mostrar Datos Ver
  • The.great.gilly.hopkins.2016.1080p.LATINO.mkv
    Format                      : Matroska
    Format version              : Version 4 / Version 2
    File size                   : 2.79 GiB
    Duration                    : 1 h 37 min
    Overall bit rate            : 4 087 kb/s
    Movie name                  : DPeliculasHDMega.ORG
    Encoded date                : UTC 2017-06-03 22:14:08 / UTC 2017-06-03T20:34:08Z
    Writing application         : mkvmerge v10.0.0 ('To Drown In You') 64bit
    Writing library             : libebml v1.3.4 + libmatroska v1.4.5 / Lavf57.7.2

    Video
    ID                          : 1
    Format                      : AVC
    Format/Info                 : Advanced Video Codec
    Format profile              : High@L4.1
    Format settings, CABAC      : Yes
    Format settings, ReFrames   : 4 frames
    Codec ID                    : V_MPEG4/ISO/AVC
    Duration                    : 1 h 37 min
    Bit rate                    : 3 500 kb/s
    Width                       : 1 920 pixels
    Height                      : 800 pixels
    Display aspect ratio        : 2.40:1
    Frame rate mode             : Constant
    Frame rate                  : 24.000 FPS
    Color space                 : YUV
    Chroma subsampling          : 4:2:0
    Bit depth                   : 8 bits
    Scan type                   : Progressive
    Bits/(Pixel*Frame)          : 0.095
    Stream size                 : 2.30 GiB (82%)
    Writing library             : x264 core 148 r2708 86b7198
    Encoding settings           : cabac=1 / ref=3 / deblock=1:0:0 / analyse=0x3:0x113 / me=hex / subme=7 / psy=1 / psy_rd=1.00:0.00 / mixed_ref=1 / me_range=16 / chroma_me=1 / trellis=1 / 8x8dct=1 / cqm=0 / deadzone=21,11 / fast_pskip=1 / chroma_qp_offset=-2 / threads=12 / lookahead_threads=2 / sliced_threads=0 / nr=0 / decimate=1 / interlaced=0 / bluray_compat=0 / constrained_intra=0 / bframes=3 / b_pyramid=2 / b_adapt=1 / b_bias=0 / direct=1 / weightb=1 / open_gop=0 / weightp=2 / keyint=240 / keyint_min=24 / scenecut=40 / intra_refresh=0 / rc_lookahead=40 / rc=abr / mbtree=1 / bitrate=3500 / ratetol=1.0 / qcomp=0.60 / qpmin=0 / qpmax=69 / qpstep=4 / vbv_maxrate=62500 / vbv_bufsize=78125 / nal_hrd=none / filler=0 / ip_ratio=1.40 / aq=1:1.00
    Default                     : Yes
    Forced                      : No
    Color range                 : Limited
    Color primaries             : BT.709
    Transfer characteristics    : BT.709
    Matrix coefficients         : BT.709
    Statistics Tags Issue       : mkvmerge v10.0.0 ('To Drown In You') 64bit 2017-06-03 22:14:08 / mkvmerge v10.0.0 ('To Drown In You') 64bit 2017-06-03 22:14:08 / UTC 2017-06-03T20:34:08Z
    FromStats_BitRate           : 3445475
    FromStats_Duration          : 01:37:37.084000000
    FromStats_FrameCount        : 140570
    FromStats_StreamSize        : 2522554571

    Audio #1
    ID                          : 2
    Format                      : AC-3
    Format/Info                 : Audio Coding 3
    Format settings, Endianness : Big
    Codec ID                    : A_AC3
    Duration                    : 1 h 37 min
    Bit rate mode               : Constant
    Bit rate                    : 256 kb/s
    Channel(s)                  : 2 channels
    Channel positions           : Front: L R
    Sampling rate               : 48.0 kHz
    Frame rate                  : 31.250 FPS (1536 spf)
    Bit depth                   : 16 bits
    Compression mode            : Lossy
    Delay relative to video     : -5 ms
    Stream size                 : 179 MiB (6%)
    Title                       : Stereo
    Language                    : Spanish
    Service kind                : Complete Main
    Default                     : Yes
    Forced                      : No
    Statistics Tags Issue       : mkvmerge v10.0.0 ('To Drown In You') 64bit 2017-06-03 22:14:08 / mkvmerge v10.0.0 ('To Drown In You') 64bit 2017-06-03 22:14:08 / UTC 2017-06-03T20:34:08Z
    FromStats_BitRate           : 256000
    FromStats_Duration          : 01:37:28.224000000
    FromStats_FrameCount        : 182757
    FromStats_StreamSize        : 187143168

    Audio #2
    ID                          : 3
    Format                      : AC-3
    Format/Info                 : Audio Coding 3
    Format settings, Endianness : Big
    Codec ID                    : A_AC3
    Duration                    : 1 h 37 min
    Bit rate mode               : Constant
    Bit rate                    : 384 kb/s
    Channel(s)                  : 6 channels
    Channel positions           : Front: L C R, Side: L R, LFE
    Sampling rate               : 48.0 kHz
    Frame rate                  : 31.250 FPS (1536 spf)
    Bit depth                   : 16 bits
    Compression mode            : Lossy
    Delay relative to video     : -5 ms
    Stream size                 : 268 MiB (9%)
    Title                       : Surround
    Language                    : English
    Service kind                : Complete Main
    Default                     : No
    Forced                      : No
    Statistics Tags Issue       : mkvmerge v10.0.0 ('To Drown In You') 64bit 2017-06-03 22:14:08 / mkvmerge v10.0.0 ('To Drown In You') 64bit 2017-06-03 22:14:08 / UTC 2017-06-03T20:34:08Z
    FromStats_BitRate           : 384000
    FromStats_Duration          : 01:37:37.056000000
    FromStats_FrameCount        : 183033
    FromStats_StreamSize        : 281138688

    Text #1
    ID                          : 4
    Format                      : UTF-8
    Codec ID                    : S_TEXT/UTF8
    Codec ID/Info               : UTF-8 Plain Text
    Language                    : Spanish
    Default                     : Yes
    Forced                      : No
    Statistics Tags Issue       : mkvmerge v10.0.0 ('To Drown In You') 64bit 2017-06-03 22:14:08 / mkvmerge v10.0.0 ('To Drown In You') 64bit 2017-06-03 22:14:08 / UTC 2017-06-03T20:34:08Z
    FromStats_BitRate           : 57
    FromStats_Duration          : 01:36:46.986000000
    FromStats_FrameCount        : 1197
    FromStats_StreamSize        : 41584

    Text #2
    ID                          : 5
    Format                      : UTF-8
    Codec ID                    : S_TEXT/UTF8
    Codec ID/Info               : UTF-8 Plain Text
    Language                    : English
    Default                     : No
    Forced                      : No
    Statistics Tags Issue       : mkvmerge v10.0.0 ('To Drown In You') 64bit 2017-06-03 22:14:08 / mkvmerge v10.0.0 ('To Drown In You') 64bit 2017-06-03 22:14:08 / UTC 2017-06-03T20:34:08Z
    FromStats_BitRate           : 62
    FromStats_Duration          : 01:29:02.060000000
    FromStats_FrameCount        : 1401
    FromStats_StreamSize        : 41868

    Menu
    00:00:00.000                : :Chapter 1
    00:08:10.625                : :Chapter 2
    00:17:28.417                : :Chapter 3
    00:25:45.917                : :Chapter 4
    00:33:14.333                : :Chapter 5
    00:42:57.083                : :Chapter 6
    00:50:34.083                : :Chapter 7
    00:57:24.708                : :Chapter 8
    01:07:36.917                : :Chapter 9
    01:15:11.042                : :Chapter 10
    01:23:48.042                : :Chapter 11
    01:30:54.917                : :Chapter 12
    01:37:29.458                : :Chapter 13

  • Peso: 2.79 GB

Sinopsis

Gilly Hopkins es la chica más cruel de la ciudad, tiene una madre biológica a la que nunca ha visto y se ha pasado la vida moviéndose de un hogar de acogida a otro. Sabiendo que será enviada a una casa diferente, no malgasta su tiempo evitando los problemas. Pero entonces conoce a Trotter, una mujer que quiere ser la madre que Gilly necesita. Aunque, por supuesto, Trotter no lo tendrá nada fácil.

Stephen Herek (The Chaperone) dirige esta comedia escrita por David Paterson (Un puente hacia Terabithia) y que adapta la novela de Katherine Paterson. Sophie Nélisse (La ladrona de libros) es la protagonista del film, encabezando un reparto en el que también encontramos a Kathy Bates (Es la jefa), Glenn Close (Guardianes de la galaxia), Octavia Spencer (Car Dogs), Julia Stiles (Circuito cerrado), Bill Cobbs (Call Me King), Clare Foley (Sinister 2) y Zachary Hernandez (¡Menudo fenómeno!).

Ficha técnica

  • Titulo original: The Great Gilly Hopkins
  • Fecha de lanzamiento: 24-02-2016 (United States of America)
  • Director: Scott Lazar, Stephen Herek
  • Género: Comedia, Drama, Familia
  • Puntuación: 3.0 1 votos
  • Duración:
    1h 39m

Video trailer de la película

Enlaces de descarga

Rip de Bluray

Descargar La gran Gilly Hopkins (2016) 1080p Latino




Aportes de DPeliculasHDmega la pass es:dpeliculashdmega.org Aportes de CinemaniaHD la pass es:cinemaniahdd.com
Guardado en : Comedia , Drama , Familia

Películas relacionadas

  • Sicario (2015) Full 1080p Latino

    2015
    Sicario (2015) Full 1080p Latino

    5.0 2h 1m 2015

    En la zona fronteriza que se extiende entre Estados Unidos y México la joven Kate Macer, una idealista...

    Director: Judi Townsend

    Género: Acción

    Actores: Victor Garber

  • Fahrenheit 451 (2018) Full 1080p Latino

    2018
    Fahrenheit 451 (2018) Full 1080p Latino

    5.0 1h 36m 2018

    Michael B. Jordan y Michael Shannon protagonizan esta adaptación de HBO de la clásica novela distópica...

    Director: Ramin Bahrani

    Género: Ciencia ficción

    Actores: Tim Post

Comentarios 0